img image001 image001 image001 image001 image001 image001 image001 image001 image001 image001 image001 image001 image001 image001 image001
Planets Sun Sun Sun
Статистика раздачи
Автор: Nickolas3434 | Размер: 1.46 ГБ | Добавлен: 01 фев 2018
Раздают: 37    Качают: 7
Скачать торрент
Скачать торрент
Описание торрента

СообщениеДобавлено: 01 фев 2018 

Год выпуска: 2017
Оригинальное название: The Emoji Movie
Страна: США
Жанр: мультфильм, фантастика, комедия, приключения, семейный
Возраст: 6+
Режиссер: Энтони Леондис
В ролях: ТиДжей Миллер, Джеймс Корден, Анна Фэрис, Майя Рудольф, Стивен Райт, Дженнифер Кулидж, Патрик Стюарт, Кристина Агилера, София Вергара, Рэйчел
Описание фильма Эмоджи фильм (2017): Знаете ли вы, что внутри каждого смартфона есть красочный городок Текстополис, в котором живут эмоджи? И что они ужасно радуются, когда владелец телефона именно их выбирает для своего сообщения? Каждый из эмоджи отвечает лишь за одну эмоцию, и только Джин может выражать несколько эмоций сразу. Он очень хочет стать таким же, как и его собратья, и для этого вместе со своими друзьями пускается в увлекательное путешествие по приложениям телефона в поисках программы, которая поможет ему измениться. Неожиданно герои узнают о грозной опасности, нависшей над городом. Смогут ли друзья спасти Текстополис и всех его обитателей?
Продолжительность: 01:26:22
Перевод: Дублированный [Лицензия]
Оригинальная дорожка: есть
Релиз от:
Качество видео: BDRip 720p Исходник: Blu-Ray Remux (1080p) Формат: mp4
Видео кодек: MPEG-4 AVC Аудио кодек: AAC
Видео: 1280x536 (2.40:1) at 23.976 fps, AVC at 2 086 kbps avg, 0.127 bit/pixel
Аудио №1 Rus: 48.0 KHz, AAC, 2 ch, 160.0 Kbps
Аудио №2 Eng: 48.0 KHz, AAC, 2 ch, 160.0 Kbps
Субтитры: русские (полные), английские (полные)
Навигация по главам: есть
Размер: 1.46 GiB
avs [info]: 1280x536p 1:1 @ 24000/1001 fps (cfr)
x264 [info]: using SAR=1/1
x264 [info]: using cpu capabilities: MMX2 SSE2Fast SSSE3 Cache64
x264 [info]: profile High, level 4.1
x264 [info]: frame I:1230 Avg QP:15.76 size: 86492
x264 [info]: frame P:31293 Avg QP:19.22 size: 22683
x264 [info]: frame B:91725 Avg QP:22.81 size: 5835
x264 [info]: consecutive B-frames: 3.1% 4.6% 6.2% 49.4% 12.4% 16.8% 7.5%
x264 [info]: mb I I16..4: 13.0% 55.8% 31.2%
x264 [info]: mb P I16..4: 4.0% 8.4% 1.9% P16..4: 44.3% 14.0% 13.2% 0.7% 0.3% skip:13.3%
x264 [info]: mb B I16..4: 0.4% 0.8% 0.2% B16..8: 34.6% 6.0% 1.6% direct: 3.4% skip:53.0% L0:42.2% L1:48.6% BI: 9.2%
x264 [info]: 8x8 transform intra:57.6% inter:67.0%
x264 [info]: coded y,uvDC,uvAC intra: 56.6% 80.9% 55.6% inter: 12.8% 20.5% 6.1%
x264 [info]: i16 v,h,dc,p: 19% 39% 3% 40%
x264 [info]: i8 v,h,dc,ddl,ddr,vr,hd,vl,hu: 21% 23% 14% 5% 7% 8% 8% 7% 7%
264 [info]: i4 v,h,dc,ddl,ddr,vr,hd,vl,hu: 26% 26% 11% 5% 8% 7% 7% 5% 5%
x264 [info]: i8c dc,h,v,p: 35% 29% 21% 15%
x264 [info]: Weighted P-Frames: Y:3.1% UV:2.3%
x264 [info]: ref P L0: 54.7% 10.4% 13.9% 6.0% 4.1% 3.8% 3.0% 2.0% 1.9% 0.1% 0.0%
x264 [info]: ref B L0: 79.6% 8.4% 4.9% 2.2% 1.9% 1.4% 1.1% 0.4%
x264 [info]: ref B L1: 95.6% 4.4%
x264 [info]: kb/s:2086.22
encoded 124248 frames, 4.74 fps, 2086.22 kb/s

General
Complete name : ...Emodzhi-film-2017_KinoGadget.mp4
Format : MPEG-4
Format profile : Base Media
Codec ID : isom (isom)
File size : 1.46 GiB
Duration : 1 h 26 min
Overall bit rate mode : Variable
Overall bit rate : 2 418 kb/s
Movie name : Эмоджи фильм | KinoGadget
Performer : Энтони Леондис
Director : Энтони Леондис
Actor : ТиДжей Миллер / Джеймс Корден / Анна Фэрис / Майя Рудольф / Стивен Райт / Дженнифер Кулидж / Патрик Стюарт / Кристина Агилера / София Вергара / Рэйчел
Screenplay by : Энтони Леондис / Эрик Сигел / Майк Уайт
Producer : Тереза Бентц / Джон Крейдман / Мишель Раймо
Genre : Adventure, Animation, Comedy, Family
ContentType : Short Film
Recorded date : 2017
Encoded date : UTC 2018-01-29 07:11:55
Tagged date : UTC 2018-01-29 07:38:13
Cover : Yes
ContentRating : mpaa|PG|200|
LongDeion : Знаете ли вы, что внутри каждого смартфона есть красочный городок Текстополис, в котором живут эмоджи? И что они ужасно радуются, когда владелец телефона именно их выбирает для своего сообщения? Каждый из эмоджи отвечает лишь за одну эмоцию, и только Джин может выражать несколько эмоций сразу. Он очень хочет стать таким же, как и его собратья, и для этого вместе со своими друзьями пускается в увлекательное путешествие по приложениям телефона в поисках программы, которая поможет ему измениться.
HDVideo : Yes
Video
ID : 1
Format : AVC
Format/Info : Advanced Video Codec
Format profile : [email protected]
Format settings : CABAC / 9 Ref Frames
Format settings, CABAC : Yes
Format settings, ReFrames : 9 frames
Codec ID : avc1
Codec ID/Info : Advanced Video Coding
Duration : 1 h 26 min
Bit rate : 2 086 kb/s
Maximum bit rate : 13.5 Mb/s
Width : 1 280 pixels
Height : 536 pixels
Display aspect ratio : 2.40:1
Frame rate mode : Constant
Frame rate : 23.976 (24000/1001) FPS
Color space : YUV
Chroma subsampling : 4:2:0
Bit depth : 8 bits
Scan type : Progressive
Bits/(Pixel*Frame) : 0.127
Stream size : 1.26 GiB (86%)
Writing library : x264 core 152 r2851 ba24899
Encoding settings : cabac=1 / ref=9 / deblock=1:0:0 / analyse=0x3:0x133 / me=umh / subme=7 / psy=1 / psy_rd=1.00:0.00 / mixed_ref=1 / me_range=32 / chroma_me=1 / trellis=2 / 8x8dct=1 / cqm=0 / deadzone=21,11 / fast_pskip=0 / chroma_qp_offset=-2 / threads=3 / lookahead_threads=1 / sliced_threads=0 / nr=0 / decimate=1 / interlaced=0 / bluray_compat=0 / constrained_intra=0 / bframes=6 / b_pyramid=2 / b_adapt=2 / b_bias=0 / direct=1 / weightb=1 / open_gop=0 / weightp=2 / keyint=250 / keyint_min=25 / scenecut=40 / intra_refresh=0 / rc_lookahead=60 / rc=crf / mbtree=1 / crf=19.0 / qcomp=0.60 / qpmin=0 / qpmax=69 / qpstep=4 / vbv_maxrate=62500 / vbv_bufsize=78125 / crf_max=0.0 / nal_hrd=none / filler=0 / ip_ratio=1.40 / aq=1:1.00
Encoded date : UTC 2018-01-29 02:14:58
Tagged date : UTC 2018-01-29 07:13:18
Audio #1
ID : 2
Format : AAC
Format/Info : Advanced Audio Codec
Format profile : LC
Codec ID : mp4a-40-2
Duration : 1 h 26 min
Bit rate mode : Variable
Bit rate : 160 kb/s
Maximum bit rate : 165 kb/s
Channel(s) : 2 channels
Channel positions : Front: L R
Sampling rate : 48.0 kHz
Frame rate : 46.875 FPS (1024 SPF)
Compression mode : Lossy
Stream size : 98.8 MiB (7%)
Language : Russian
Encoded date : UTC 2018-01-29 02:23:00
Tagged date : UTC 2018-01-29 07:13:18
Audio #2
ID : 3
Format : AAC
Format/Info : Advanced Audio Codec
Format profile : LC
Codec ID : mp4a-40-2
Duration : 1 h 26 min
Bit rate mode : Variable
Bit rate : 160 kb/s
Maximum bit rate : 165 kb/s
Channel(s) : 2 channels
Channel positions : Front: L R
Sampling rate : 48.0 kHz
Frame rate : 46.875 FPS (1024 SPF)
Compression mode : Lossy
Stream size : 98.8 MiB (7%)
Language : English
Encoded date : UTC 2018-01-29 02:58:52
Tagged date : UTC 2018-01-29 07:13:18
Text #1
ID : 4
Format : Timed Text
Codec ID : tx3g
Duration : 1 h 26 min
Bit rate mode : Variable
Bit rate : 91 b/s
Stream size : 57.8 KiB (0%)
Language : Russian
Forced : No
Encoded date : UTC 2018-01-29 07:13:18
Tagged date : UTC 2018-01-29 07:13:18
Text #2
ID : 5
Format : Timed Text
Codec ID : tx3g
Duration : 1 h 20 min
Bit rate mode : Variable
Bit rate : 72 b/s
Stream size : 42.1 KiB (0%)
Language : English
Forced : No
Encoded date : UTC 2018-01-29 07:13:18
Tagged date : UTC 2018-01-29 07:13:18
Menu
00:00:00.000 : Chapter 01
00:05:12.478 : Chapter 02
00:11:38.531 : Chapter 03
00:15:49.406 : Chapter 04
00:22:24.051 : Chapter 05
00:26:48.356 : Chapter 06
00:32:11.262 : Chapter 07
00:39:15.186 : Chapter 08
00:44:16.487 : Chapter 09
00:48:42.753 : Chapter 10
00:53:07.392 : Chapter 11
00:58:19.370 : Chapter 12
01:02:35.752 : Chapter 13
01:07:18.784 : Chapter 14
01:11:54.893 : Chapter 15
01:16:05.394 : Chapter 16



Данный рип предназначен для просмотра на мобильных гаджетах с поддержкой формата mp4




   Похожие торренты   Торрент   Размер 
В этой теме нет новых непрочитанных сообщений. Эмоджи фильм / The Emoji Movie (2017) BDRip от ExKinoRay | Лицензия

34 | 0

1.46 ГБ

В этой теме нет новых непрочитанных сообщений. Эмоджи фильм / The Emoji Movie (2017) BDRip-AVC от New-Team | Лицензия

13 | 3

1.36 ГБ

В этой теме нет новых непрочитанных сообщений. Эмоджи фильм / The Emoji Movie (2017) BDRip-AVC от New-Team | Лицензия

25 | 4

746.38 МБ

В этой теме нет новых непрочитанных сообщений. Эмоджи фильм / The Emoji Movie (2017) BDRip-AVC от New-Team | Лицензия

27 | 1

2.11 ГБ

В этой теме нет новых непрочитанных сообщений. Эмоджи фильм / The Emoji Movie (2017) BDRip 1080p от ExKinoRay | Лицензия

0 | 0

8.14 ГБ

В этой теме нет новых непрочитанных сообщений. Эмоджи фильм / The Emoji Movie (2017) BDRip 720p | iTunes

682 | 14

4.03 ГБ

В этой теме нет новых непрочитанных сообщений. Эмоджи фильм / The Emoji Movie (2017) BDRip 720p от HELLYWOOD | iTunes

421 | 12

3.67 ГБ




Вы не можете начинать темы
Вы не можете отвечать на сообщения
Вы не можете редактировать свои сообщения
Вы не можете удалять свои сообщения
Вы не можете добавлять вложения

Перейти:  
Для Мосгорсуда, Роскомнадзора и рекламодателей: mosgorsud-torrent[собачка]yandex.ru
 Вход
ppkBB3cker v.2 © 2008-2014 @ PPK
[ Time : 0.049s | 18 Queries | GZIP : Off ]

cron