img image001 image001 image001 image001 image001 image001 image001 image001 image001 image001 image001 image001 image001 image001 image001
Planets Sun Sun Sun
Статистика раздачи
Автор: Nickolas3434 | Размер: 6.44 ГБ | Добавлен: 04 фев 2018
Раздают: 0    Качают: 0
Скачать торрент
Скачать торрент
Описание торрента

СообщениеДобавлено: 04 фев 2018 




Маленький вампир
The Little Vampire 3D
«Путешествие с дружеским укусом!»



#77
Год выпуска: 2017
Страна: Нидерланды, Германия, Дания, Великобритания (eOne, Cinema Management Group, First Look, Comet Film, A-Film Production, Cool Beans, Telescreen, Rothkirch Cartoon Film, ...)
Жанр: Мультфильм, Ужасы, Фэнтези, Комедия, Приключения, Семейный
Продолжительность: 01:22:11
Перевод: Профессиональный дублированный - iTunes
Режиссеры: Рихард Клаус, Карстен Килерих / Richard Claus, Karsten Kiilerich


дублировали:
Расмус Хардайкер / Олег Новиков, Александр Соколовский (Rudolph Sackville-Bagg / Gregory Sackville-Bagg), Эми Сэвилл / Семен Трескунов (Tony Thompson), Джим Картер / Илья Исаев (Rookery), Джозеф Клоска / Антон Колесников (Maney), Фиби Гиврон-Тейлор / Настасья Самбурская (Anna Sackville-Bagg), Тим Пиготт-Смит / Алексей Горшенев (Frederick Sackville-Bagg), Элис Крайдж / Настасья Самбурская (Freda Sackville-Bagg), Джулия Родс / Елена Ивасишина (Dottie Thompson), Кевин Отто / Алексей Мясников (Bob Thompson), Дайан Уилсон (Emma / Aunt Ashley), Грэм Кларк / Александр Новиков (Otto), Мириам Маргулис / Елена Войновская (Wulftrud), Мэттью Марш / Валерий Сторожик (Gernot), Мэттью Дилан Робертс (Old man with dog)


Описание: Это история о маленьком вампире Рудольфе — тринадцатилетнем мальчике, чью семью преследует злостный охотник на вампиров. Однажды Рудольф встречает обычного мальчика, Тони, своего сверстника. Тони без ума от старинных замков и страшных историй про вампиров, поэтому он не раздумывая предлагает Рудольфу свою помощь. Теперь эту парочку ждут весёлые и невероятные приключения и противостояние с охотником на вампиров.


Доп. инфо: Видеоряд голландский.
Знаете ли вы, что: Джим Картер и Элис Крайдж озвучивают тех же героев, которых играли в одноимённом фильме Ули Эделя 2000 года.


Премьера: 1 октября 2017 (9 ноября 2017)
Бюджет: $10 000 000

.



Качество: BDRip (by Ash61) [с BD 2D/3D NLD]
Контейнер: MKV
Формат 3D: Half OverUnder / Вертикальная анаморфная стереопара
Порядок ракурсов: левый ракурс первый


Видео: AVC / 1920х1080p / 23,976 fps / 10.0 Mbps
Аудио:
#1 - Русский / AC3 / 48 KHz / 5.1 ch / 384 Kbps (Дубляж - iTunes)
#2 - Украинский / AC3 / 48 KHz / 2 ch / 192 Kbps (Дубляж - iTunes) [Спасибо Hurtom!]
#3 - Английский / AC3 / 48 KHz / 5.1 ch / 640 Kbps (Original - BD 3D)
Субтитры: Отсутствуют
General
Unique ID : 179105650611479892331015316553091233923 (0x86BE7E5ABEC07E3A5D22481E84FBB883)
Complete name : D:TheLittleVampire(2017)3D-halfOU(Ash61)iTunes.mkv
Format : Matroska
Format version : Version 4 / Version 2
File size : 6.44 GiB
Duration : 1h 22mn
Overall bit rate : 11.2 Mbps
Movie name : Маленький вампир / The Little Vampire 3D (2017) in 3D
Encoded date : UTC 2018-02-02 09:30:28
Writing application : mkvmerge v19.0.0 ('Brave Captain') 64-bit
Writing library : libebml v1.3.5 + libmatroska v1.4.8
Video
ID : 1
Format : AVC
Format/Info : Advanced Video Codec
Format profile : [email protected]
MultiView_Count : 2
MultiView_Layout : Top-Bottom (left eye first)
Format settings, CABAC : Yes
Format settings, ReFrames : 4 frames
Codec ID : V_MPEG4/ISO/AVC
Duration : 1h 22mn
Bit rate : 10 000 Kbps
Width : 1 920 pixels
Height : 1 080 pixels
Display aspect ratio : 16:9
Frame rate mode : Constant
Frame rate : 23.976 (24000/1001) fps
Color space : YUV
Chroma subsampling : 4:2:0
Bit depth : 8 bits
Scan type : Progressive
Bits/(Pixel*Frame) : 0.201
Stream size : 5.74 GiB (89%)
Title : BDRip by Ash61 [с BD 2D/3D NLD]
Writing library : x264 core 146 r2538 121396c
Encoding settings : cabac=1 / ref=4 / deblock=1:-3:-3 / analyse=0x3:0x113 / me=umh / subme=10 / psy=1 / psy_rd=1.00:0.00 / mixed_ref=1 / me_range=32 / chroma_me=1 / trellis=2 / 8x8dct=1 / cqm=0 / deadzone=21,11 / fast_pskip=0 / chroma_qp_offset=-2 / threads=12 / lookahead_threads=2 / sliced_threads=0 / nr=0 / decimate=0 / interlaced=0 / bluray_compat=0 / constrained_intra=0 / bframes=8 / b_pyramid=2 / b_adapt=2 / b_bias=0 / direct=3 / weightb=1 / open_gop=0 / weightp=2 / keyint=250 / keyint_min=23 / scenecut=40 / intra_refresh=0 / rc_lookahead=60 / rc=2pass / mbtree=0 / bitrate=10000 / ratetol=1.0 / qcomp=0.70 / qpmin=0 / qpmax=69 / qpstep=4 / cplxblur=20.0 / qblur=0.5 / vbv_maxrate=40000 / vbv_bufsize=30000 / nal_hrd=none / filler=0 / frame-packing=4 / ip_ratio=1.40 / pb_ratio=1.30 / aq=1:0.70
Language : Dutch
Default : Yes
Forced : No
Audio #1
ID : 2
Format : AC-3
Format/Info : Audio Coding 3
Mode extension : CM (complete main)
Format settings, Endianness : Big
Codec ID : A_AC3
Duration : 1h 22mn
Bit rate mode : Constant
Bit rate : 384 Kbps
Channel(s) : 6 channels
Channel positions : Front: L C R, Side: L R, LFE
Sampling rate : 48.0 KHz
Frame rate : 31.250 fps (1536 spf)
Compression mode : Lossy
Stream size : 226 MiB (3%)
Title : Дубляж - iTunes
Language : Russian
Default : Yes
Forced : No
Audio #2
ID : 3
Format : AC-3
Format/Info : Audio Coding 3
Mode extension : CM (complete main)
Format settings, Endianness : Big
Codec ID : A_AC3
Duration : 1h 22mn
Bit rate mode : Constant
Bit rate : 192 Kbps
Channel(s) : 2 channels
Channel positions : Front: L R
Sampling rate : 48.0 KHz
Frame rate : 31.250 fps (1536 spf)
Compression mode : Lossy
Stream size : 113 MiB (2%)
Title : Дубляж - iTunes
Language : Ukrainian
Default : No
Forced : No
Audio #3
ID : 4
Format : AC-3
Format/Info : Audio Coding 3
Mode extension : CM (complete main)
Format settings, Endianness : Big
Codec ID : A_AC3
Duration : 1h 22mn
Bit rate mode : Constant
Bit rate : 640 Kbps
Channel(s) : 6 channels
Channel positions : Front: L C R, Side: L R, LFE
Sampling rate : 48.0 KHz
Frame rate : 31.250 fps (1536 spf)
Compression mode : Lossy
Stream size : 376 MiB (6%)
Language : English
Default : No
Forced : No
Menu
00:00:00.000 : :1
00:06:32.642 : :2
00:13:45.450 : :3
00:19:58.447 : :4
00:28:31.084 : :5
00:35:24.456 : :6
00:42:31.507 : :7
00:50:41.747 : :8
00:57:50.008 : :9
01:04:38.875 : :10
01:10:57.712 : :11
01:18:31.081 : :12





















   Похожие торренты   Торрент   Размер 
В этой теме нет новых непрочитанных сообщений. Мумия / The Mummy (2017) BDRip 1080p от Ash61 | 3D-Video | halfOU | iTunes

313 | 84

12.08 ГБ

В этой теме нет новых непрочитанных сообщений. Геошторм / Geostorm (2017) BDRip 1080p от Ash61 | 3D-Video | halfOU | iTunes

0 | 0

13.88 ГБ

В этой теме нет новых непрочитанных сообщений. Тачки 3 / Cars 3 (2017) BDRip 1080p от Ash61 | 3D-Video | halfOU | iTunes

0 | 0

9.06 ГБ

В этой теме нет новых непрочитанных сообщений. Тачки 3 / Cars 3 (2017) BDRip 1080p от Ash61 | 3D-Video | halfOU | iTunes

85 | 8

9.25 ГБ

В этой теме нет новых непрочитанных сообщений. Гадкий я 3 / Despicable Me 3 (2017) BDRip 1080p от Ash61 | 3D-Video | halfOU | iTunes

352 | 152

7.97 ГБ

В этой теме нет новых непрочитанных сообщений. Чудо-женщина / Wonder Woman (2017) BDRip 1080p от Ash61 | 3D-Video | halfOU | iTunes

224 | 24

12.54 ГБ

В этой теме нет новых непрочитанных сообщений. Босс-молокосос / The Boss Baby (2017) BDRip 1080p от Ash61 | 3D-Video | halfOU | iTunes

66 | 9

6.1 ГБ




Вы не можете начинать темы
Вы не можете отвечать на сообщения
Вы не можете редактировать свои сообщения
Вы не можете удалять свои сообщения
Вы не можете добавлять вложения

Перейти:  
Для Мосгорсуда, Роскомнадзора и рекламодателей: mosgorsud-torrent[собачка]yandex.ru
 Вход
ppkBB3cker v.2 © 2008-2014 @ PPK
[ Time : 0.051s | 18 Queries | GZIP : Off ]

cron