img image001 image001 image001 image001 image001 image001 image001 image001 image001 image001 image001 image001 image001 image001 image001
Planets Sun Sun Sun
Статистика раздачи
Автор: Снежана | Размер: 697.62 МБ | Добавлен: 08 фев 2018
Раздают: 61    Качают: 15
Скачать торрент
Скачать торрент
Описание торрента

СообщениеДобавлено: 08 фев 2018 

Информация о фильме
Название: Бэтмен: Готэм в газовом свете
Оригинальное название: Batman: Gotham by Gasligh
Год выхода: 2018
Жанр: боевик, детектив, история, криминал, мультфильмы, приключения, фэнтези
Режиссер: Сэм Лью
В ролях: Брюс Гринвуд, Энтони Хэд, Скотт Гордон-Паттерсон, Грэй ДеЛисл, Кари Вурер, Линкольн Мелчер, Юрий Ловенталь, Джон Ди Маджио, Дженнифер Карпентер, Тара Стронг и другие
О фильме: В альтернативной ситуации, в 1889 г., Брюс Уэйн возвратится в Готэм из своего странствия по Европе. Городок викторианской эпохи всё так же притягивает злоумышленников. Цепочка таинственных и бесчеловечных убийств вынуждает обитателей предполагать, что киллер — Бэтмен. Тёмному Рыцарю кидает вызов самый знаменитый маньяк XIX столетия — Джек-потрошитель

Страна: США
Продолжительность: 01:17:02
Перевод: Любительский (многоголосый, закадровый) | Flarrow Films
Субтитры: Нет
Файл
Кодек: XviD
Качество: WEBRip
Видео: 688x384 (1.79:1), 23.976 fps, XviD build 73 ~1064 kbps avg, 0.17 bit/pixel
Звук: 48 kHz, MPEG Layer 3, 2 ch, ~192.00 kbps avg
General
Complete name : Batman.Gotham.by.Gasligh.2018.WEBRip.ot.Portablius.avi
Format : AVI
Format/Info : Audio Video Interleave
File size : 698 MiB
Duration : 1 h 17 min
Overall bit rate : 1 266 kb/s
Writing application : VirtualDubMod 1.5.10.3 | www.virtualdub-fr.org || (build 2550/release)
Writing library : VirtualDubMod build 2550/release
Video
ID : 0
Format : MPEG-4 Visual
Format profile : Advanced [email protected]
Format settings, BVOP : 1
Format settings, QPel : No
Format settings, GMC : No warppoints
Format settings, Matrix : Custom
Codec ID : XVID
Codec ID/Hint : XviD
Duration : 1 h 17 min
Bit rate : 1 065 kb/s
Width : 688 pixels
Height : 384 pixels
Display aspect ratio : 16:9
Frame rate : 23.976 (24000/1001) FPS
Original frame rate : 23.976 (23976/1000) FPS
Color space : YUV
Chroma subsampling : 4:2:0
Bit depth : 8 bits
Scan type : Progressive
Compression mode : Lossy
Bits/(Pixel*Frame) : 0.168
Stream size : 587 MiB (84%)
Writing library : XviD 73
Audio
ID : 1
Format : MPEG Audio
Format version : Version 1
Format profile : Layer 3
Codec ID : 55
Codec ID/Hint : MP3
Duration : 1 h 17 min
Bit rate mode : Constant
Bit rate : 192 kb/s
Channel(s) : 2 channels
Sampling rate : 48.0 kHz
Compression mode : Lossy
Stream size : 106 MiB (15%)
Alignment : Aligned on interleaves
Interleave, duration : 42 ms (1.00 video frame)
Interleave, preload duratio : 504 ms
Writing library : LAME3.99r
Encoding settings : -m s -V 4 -q 2 -lowpass 18.6 -b 192



   Похожие торренты   Торрент   Размер 
В этой теме нет новых непрочитанных сообщений. Бэтмен: Готэм в газовом свете / Batman: Gotham by Gaslight (2018) WEBRip 720p | Flarrow Films

709 | 26

2.39 ГБ

В этой теме нет новых непрочитанных сообщений. Бэтмен: Готэм в газовом свете / Batman: Gotham by Gaslight (2018) WEBRip 720p | ZM-SHOW

275 | 3

2.4 ГБ

В этой теме нет новых непрочитанных сообщений. Бэтмен: Готэм в газовом свете / Batman: Gotham by Gaslight (2018) BDRip 720p от potroks | L

0 | 0

2.06 ГБ

В этой теме нет новых непрочитанных сообщений. Бэтмен: Готэм в газовом свете / Batman: Gotham by Gaslight (Сэм Лью) [2018, мультфильм, фэнтези, боевик, криминал, детектив, BDRip 1080p] MVO + Original

0 | 4

5.57 ГБ

В этой теме нет новых непрочитанных сообщений. Бэтмен: Готэм в газовом свете / Batman: Gotham by Gaslight (Сэм Лью) [2018, мультфильм, фэнтези, боевик, криминал, детектив, BDRip 720p] MVO + Original

5 | 6

3.38 ГБ

В этой теме нет новых непрочитанных сообщений. LEGO Batman 3: Покидая Готэм / LEGO Batman 3: Beyond Gotham [Update 2 + DLC] (2014) PC | RePack от R.G. Freedom

2172 | 187

7.46 ГБ

В этой теме нет новых непрочитанных сообщений. LEGO Batman 3: Покидая Готэм / LEGO Batman 3: Beyond Gotham (2014) PC | RePack от MAXAGENT

1390 | 356

6.65 ГБ




Вы не можете начинать темы
Вы не можете отвечать на сообщения
Вы не можете редактировать свои сообщения
Вы не можете удалять свои сообщения
Вы не можете добавлять вложения

Перейти:  
Для Мосгорсуда, Роскомнадзора и рекламодателей: mosgorsud-torrent[собачка]yandex.ru
 Вход
ppkBB3cker v.2 © 2008-2014 @ PPK
[ Time : 0.026s | 18 Queries | GZIP : Off ]

cron