img image001 image001 image001 image001 image001 image001 image001 image001 image001 image001 image001 image001 image001 image001 image001
Planets Sun Sun Sun
Статистика раздачи
Автор: PriZraK | Размер: 1.79 ГБ | Добавлен: 12 фев 2018
Раздают: 68    Качают: 7
Скачать торрент
Скачать торрент
Описание торрента

СообщениеДобавлено: 12 фев 2018 

Колобанга. Привет, Интернет!

Перевод: Не требуется, cубтитры: отсутствуют
Формат: WEB-DLRip-AVC, MKV, H.264, AC3
Страна: Россия
Режиссер: Александр Романец, Вячеслав Марченко
Жанр: Мультфильм, приключения, комедия, детектив
Продолжительность: 01:29:36
Год выпуска: 2017
В ролях: Михаил Галустян, Александр Ревва, Гарик Харламов, Александр Романец, Вячеслав Марченко, Илья Дорогов, Сергей Васин, Денис Заречнов, Никита Погодаев, Олег Кучин

Описание: На бескрайних просторах Всемирной паутины, в Колобанге, беззаботно живут ничего не подозревающие смайлы-колобки. Они помогают мальчику Антону передавать эмоции в письмах, а в свободное от работы время отрываются по-круглому! Но однажды в городе происходит несколько таинственных событий, и становится понятно: коварные и могущественные силы хотят поработить Интернет! Смелые друзья — Чёлка, Колобок и Умник — встретятся с пришельцами, посетят заброшенный сайт, побывают в Карантине и столкнутся лицом к лицу с армией Правителя Фидо… Удастся ли им спасти Интернет, находясь на краю пропасти? «Колобанга» покажет!



Видео: 1024x576 (16:9), 24,000 fps, AVС ,V_MPEG4 ( x264) ~2600 kbps avg, 0.184 bit/pixel
Аудио: 48 kHz, AC3 Dolby Digital, 2/0 (L,R) ch, ~256 kbps

Формат : Matroska
Версия формата : Version 4 / Version 2
Размер файла : 1,79 Гбайт
Продолжительность : 1 ч. 29 м.
Общий поток : 2859 Кбит/сек
Программа кодирования : XviD4PSP 7.0.439 DAILY
Библиотека кодирования : Lavf57.71.100
Примечание : Rip by Basma4i
ErrorDetectionType : Per level 1
ENCODING_INFO : MATROSKA,WEBM > MKV Пользовательский / H264 > X264 VBR-2P 2600kbps HQ / AC3 > AC3 CBR 256kbps

Видео
Идентификатор : 1
Формат : AVC
Формат/Информация : Advanced Video Codec
Профиль формата :
Настройки формата : CABAC / 9 Ref Frames
Параметр CABAC формата : Да
Параметр RefFrames формата : 9 кадров
Идентификатор кодека : V_MPEG4/ISO/AVC
Продолжительность : 1 ч. 29 м.
Битрейт : 2600 Кбит/сек
Ширина : 1024 пикселя
Высота : 576 пикселей
Соотношение сторон : 16:9
Режим частоты кадров : Постоянный
Частота кадров : 24,000 кадра/сек
Цветовое пространство : YUV
Субдискретизация насыщенности : 4:2:0
Битовая глубина : 8 бит
Тип развёртки : Прогрессивная
Бит/(Пиксели*Кадры) : 0.184
Размер потока : 1,59 Гбайт (89%)
Библиотека кодирования : x264 core 155 r2893M b00bcaf
Настройки программы : cabac=1 / ref=10 / deblock=1:-3:-3 / analyse=0x3:0x133 / me=umh / subme=11 / psy=1 / psy_rd=1.00:0.20 / mixed_ref=1 / me_range=16 / chroma_me=1 / trellis=2 / 8x8dct=1 / cqm=0 / deadzone=21,11 / fast_pskip=1 / chroma_qp_offset=-3 / threads=11 / lookahead_threads=1 / sliced_threads=0 / nr=0 / decimate=1 / interlaced=0 / bluray_compat=0 / constrained_intra=0 / bframes=10 / b_pyramid=1 / b_adapt=1 / b_bias=6 / direct=1 / weightb=1 / open_gop=0 / weightp=1 / keyint=240 / keyint_min=24 / scenecut=40 / intra_refresh=0 / rc_lookahead=40 / rc=2pass / mbtree=1 / bitrate=2600 / ratetol=1.0 / qcomp=0.60 / qpmin=0 / qpmax=69 / qpstep=4 / cplxblur=20.0 / qblur=0.5 / ip_ratio=1.40 / aq=1:1.00
Default : Да
Forced : Нет
Цветовой диапазон : Limited
Основные цвета : BT.709
Характеристики трансфера : BT.709
Коэффициенты матрицы : BT.709

Аудио
Идентификатор : 2
Формат : AC-3
Формат/Информация : Audio Coding 3
Идентификатор кодека : A_AC3
Продолжительность : 1 ч. 29 м.
Вид битрейта : Постоянный
Битрейт : 256 Кбит/сек
Каналы : 2 канала
Расположение каналов : Front: L R
Частота : 48,0 КГц
Частота кадров : 31,250 кадров/сек (1536 SPF)
Битовая глубина : 16 бит
Метод сжатия : С потерями
Размер потока : 164 Мбайт (9%)
Язык : Russian
ServiceKind/String : Complete Main
Default : Да
Forced : Нет







Релиз от:



   Похожие торренты   Торрент   Размер 
В этой теме нет новых непрочитанных сообщений. Колобанга. Привет, Интернет! (2017) WEB-DLRip

970 | 37

1.24 ГБ

В этой теме нет новых непрочитанных сообщений. Колобанга. Привет, Интернет! (2017) WEB-DLRip 1080p от MediaClub

462 | 13

3.35 ГБ

В этой теме нет новых непрочитанных сообщений. Тайна Коко / Coco (Эдриан Молина, Ли Анкрич) [2017, мультфильм, фэнтези, комедия, детектив, приключения, семейный, HDRip] DUB [Line]

1274 | 16

1.37 ГБ

В этой теме нет новых непрочитанных сообщений. Тайна Коко / Coco (Эдриан Молина, Ли Анкрич) [2017, мультфильм, фэнтези, комедия, детектив, приключения, семейный, BDRip 1080p] DUB [Line] / Мультфильмы (HD/BD Video)

198 | 12

8.64 ГБ

В этой теме нет новых непрочитанных сообщений. Тайна Коко / Coco (Эдриан Молина, Ли Анкрич) [2017, мультфильм, фэнтези, комедия, детектив, приключения, семейный, BDRip 720p] DUB [Line] / Мультфильмы (HD/BD Video)

257 | 22

4.73 ГБ

В этой теме нет новых непрочитанных сообщений. Подводная эра / Deep (Джулио Сото Гарпид) [2017, мультфильм, комедия, приключения, семейный, WEB-DLRip]DUB

19 | 0

1.37 ГБ

В этой теме нет новых непрочитанных сообщений. Аврил и поддельный мир / Avril et le monde truque / April and the Extraordinary World(Кристиан Димар, Франк Экинджи) [2015, мультфильм, триллер, комедия, детектив, приключения, HDRip]VO

12 | 0

2.07 ГБ




Вы не можете начинать темы
Вы не можете отвечать на сообщения
Вы не можете редактировать свои сообщения
Вы не можете удалять свои сообщения
Вы не можете добавлять вложения

Перейти:  
Для Мосгорсуда, Роскомнадзора и рекламодателей: mosgorsud-torrent[собачка]yandex.ru
 Вход
ppkBB3cker v.2 © 2008-2014 @ PPK
[ Time : 0.040s | 18 Queries | GZIP : Off ]

cron