img image001 image001 image001 image001 image001 image001 image001 image001 image001 image001 image001 image001 image001 image001 image001 image001
Planets Sun Sun Sun
Статистика раздачи
Автор: PriZraK | Размер: 2.86 ГБ | Добавлен: 12 фев 2018
Раздают: 22    Качают: 0
Скачать торрент
Скачать торрент
Описание торрента

СообщениеДобавлено: 12 фев 2018 

Чудо-юдо


Перевод: Не требуется [iTunes]
Cубтитры: отсутствуют
Формат: WEB-DL, MKV, H.264, AC3
Страна: Россия
Режиссер: Артём Лукичев
Жанр: мультфильм, фэнтези
Продолжительность: 01:14:55
Год выпуска: 2017

В ролях: Антон Макарский, Ирина Медведева, Наталия Медведева (III), Александр Пожаров, Людмила Артемьева, Фёдор Добронравов, Иван Добронравов, Диомид Виноградов, Андрей Кайков

Описание: В некотором царстве, в некотором государстве жил-был Царь Еремей с тремя сыновьями. Был он занят целыми днями важнейшим государственным делом — диктовал мемуары о своих несуществующих подвигах. И вот однажды, средь бела дня обнаружилось на границе Царства чудище драконьей породы, а проще говоря, Чудо-Юдо. И послал Царь сыновей чудище это победить и славу царского рода приумножить. Но пока старшие сыновья спали, а Иван с Чудом-Юдом сражался, выяснилось, что пропала Царевна Варвара из Соседнего Царства. И отправился Иван на её поиски. Ну и Чудо-Юдо с собой прихватил. На всякий случай. Вдруг в дороге пригодится! Не знал только Иван, что Дракон этот — совсем не тот, за кого себя выдаёт.

Рейтинг на КиноПоиск.Ru: 4.962

Видео: 1920x1038p (1,85:1), 24 fps, AVC MPEG-4 (x264), , ~ 5080 kbps avg. 0.106 bit/pixel

Аудио: Русский: 48 kHz, AC3, 3/2 (L,C,R,l,r) + LFE ch, ~384.00 kbps avg
Общее
Уникальный идентификатор : 213141734229805716782408992559531833088 (0xA0599AD67A7951B3B4A6E6F12AA43700)
Полное имя : E:\CHUDO_UDO_WEB_DL_1080p.mkv
Формат : Matroska
Версия формата : Version 4 / Version 2
Размер файла : 2,86 Гбайт
Продолжительность : 1 ч. 14 м.
Общий поток : 5466 Кбит/сек
Дата кодирования : UTC 2018-01-25 06:24:00
Программа кодирования : mkvmerge v7.1.0 ('Good Love') 32bit built on Jul 27 2014 12:59:18
Библиотека кодирования : libebml v1.3.0 + libmatroska v1.4.1

Видео
Идентификатор : 1
Формат : AVC
Формат/Информация : Advanced Video Codec
Профиль формата : [email protected]
Параметр CABAC формата : Да
Параметр RefFrames формата : 4 кадра
Идентификатор кодека : V_MPEG4/ISO/AVC
Продолжительность : 1 ч. 14 м.
Битрейт : 5080 Кбит/сек
Ширина : 1920 пикселей
Высота : 1038 пикселей
Соотношение сторон : 1,85:1
Режим частоты кадров : Постоянный
Частота кадров : 24,000 кадра/сек
Цветовое пространство : YUV
Субдискретизация насыщенности : 4:2:0
Битовая глубина : 8 бит
Тип развёртки : Прогрессивная
Бит/(Пиксели*Кадры) : 0.106
Размер потока : 2,66 Гбайт (93%)
Язык : English
Default : Да
Forced : Нет
Цветовой диапазон : Limited
Основные цвета : BT.709
Характеристики трансфера : BT.709
Коэффициенты матрицы : BT.709

Аудио
Идентификатор : 2
Формат : AC-3
Формат/Информация : Audio Coding 3
Параметр Endianness формата : Big
Идентификатор кодека : A_AC3
Продолжительность : 1 ч. 14 м.
Вид битрейта : Постоянный
Битрейт : 384 Кбит/сек
Каналы : 6 каналов
Расположение каналов : Front: L C R, Side: L R, LFE
Частота : 48,0 КГц
Частота кадров : 31,250 кадров/сек (1536 SPF)
Битовая глубина : 16 бит
Метод сжатия : С потерями
Размер потока : 206 Мбайт (7%)
Язык : Russian
ServiceKind/String : Complete Main
Default : Да
Forced : Нет

Меню
00:00:00.000 : en:Глава 1
00:05:37.208 : en:Глава 2
00:12:26.583 : en:Глава 3
00:19:25.916 : en:Глава 4
00:27:07.041 : en:Глава 5
00:34:03.624 : en:Глава 6
00:42:04.499 : en:Глава 7
00:48:31.832 : en:Глава 8
00:54:11.332 : en:Глава 9












   Похожие торренты   Торрент   Размер 
В этой теме нет новых непрочитанных сообщений. Чудо-Юдо (Артём Лукичев) [2017, Мультфильм, фэнтези, WEB-DLRip-AVC]

145 | 2

1.16 ГБ

В этой теме нет новых непрочитанных сообщений. Тайна Коко / Coco (Эдриан Молина, Ли Анкрич) [2017, мультфильм, фэнтези, комедия, детектив, приключения, семейный, BDRip 1080p] DUB [Line] / Мультфильмы (HD/BD Video)

101 | 3

8.64 ГБ

В этой теме нет новых непрочитанных сообщений. Тайна Коко / Coco (Эдриан Молина, Ли Анкрич) [2017, мультфильм, фэнтези, комедия, детектив, приключения, семейный, BDRip 1080p] DUB [iTunes] / Мультфильмы (HD/BD Video)

50 | 13

8.82 ГБ

В этой теме нет новых непрочитанных сообщений. Монстры на каникулах 2 / Hotel Transylvania 2 (Генндий Тартаковский) [2015, мультфильм, фэнтези, комедия, семейный, BDRip 1080p] 2xDUB (rus, ukr) / Мультфильмы (HD/BD Video)

1512 | 108

5.99 ГБ

В этой теме нет новых непрочитанных сообщений. Хороший динозавр / The Good Dinosaur (Питер Сон) [2015, мультфильм, фэнтези, комедия, приключения, семейный, BDRip 1080p] DUB [Line] / Мультфильмы (HD/BD Video)

681 | 28

4.5 ГБ

В этой теме нет новых непрочитанных сообщений. Тайна Коко / Coco (Эдриан Молина, Ли Анкрич) [2017, мультфильм, фэнтези, комедия, детектив, приключения, семейный, BDRip 720p] DUB [Line] / Мультфильмы (HD/BD Video)

140 | 0

4.73 ГБ

В этой теме нет новых непрочитанных сообщений. Хороший динозавр / The Good Dinosaur (Питер Сон) [2015, мультфильм, фэнтези, BDRip 720p] DUB [Line] / Мультфильмы (HD/BD Video)

1000 | 31

2.76 ГБ




Вы не можете начинать темы
Вы не можете отвечать на сообщения
Вы не можете редактировать свои сообщения
Вы не можете удалять свои сообщения
Вы не можете добавлять вложения

Перейти:  
Для Мосгорсуда, Роскомнадзора и рекламодателей: mosgorsud-torrent[собачка]yandex.ru
 Вход
ppkBB3cker v.2 © 2008-2014 @ PPK
[ Time : 0.884s | 17 Queries | GZIP : Off ]

cron