img image001 image001 image001 image001 image001 image001 image001 image001 image001 image001 image001 image001 image001 image001 image001
Planets Sun Sun Sun
Статистика раздачи
Автор: PriZraK | Размер: 9.99 ГБ | Добавлен: 12 фев 2018
Раздают: 9    Качают: 2
Скачать торрент
Скачать торрент
Описание торрента

СообщениеДобавлено: 12 фев 2018 

Барбоскины (1-167 серии из 167)

Перевод: Не требуется
Субтитры: отсутствуют
Формат: WEB-DL, MKV, H.264, AC3
Страна: Россия
Режиссер: Екатерина Салабай, Елена Галдобина, Дарина Шмидт
Жанр: мультфильм, детский
Продолжительность: 167 х ~ 00:04:00
Год выпуска: 2011-2016

В ролях: Елена Шульман,Ксения Бржезовская,Олег Куликович,Михаил Черняк,Екатерина Гороховская,Мария Цветкова-Овсянникова.

Описание: Мама, папа и… пятеро щенят. У Барбоскиных все, как у людей. Папа свободное время проводит за компьютером, дочери увлекаются модой и слушают Жанну Киску, а сыновья играют в футбол и мечтают о Нобелевской премии



Видео: 1280x720p (16:9), 25,000 fps, MPEG4 AVC (x264), ~1916 Kbps avg, 0.083 bit/pixel
Аудио: 44,1 kHz, AC3 Dolby Digital, 2/0 (L,R) ch, ~192 kbps

Релиз от:

Релиз предоставлен сайтом tfile.me!!


001. Пчёлка
002. Опять двойка
003. Межгалактическое сообщество
004. Матч
005. Тест на прочность
006. Перевоспитатели
007. Первое место
008. Игры разума
009. Развитие таланта
010. Спокойной ночи
011. Нобелевская премия
012. Миротворец
013. Незаменимый Дружок
014. Гончий Пёс
015. Кто красивее
016. Во всем виноват зайка
017. Шнурок
018. Право голоса
019. Держи себя в руках
020. Лучший подарок
021. Ку-ка-ре-ку
022. Побочный эффект
023. Самый лучший
024. Конфетка правды
025. Пульт
026. Колыбельная для Дружка
027. Рыжая
028. Совсем как Жанна Киска
029. Ночь независимости
030. Шкатулка с секретом
031. Всё за карточку
032. Триумф силы воли
033. Заместитель джинна
034. Вечные ценности
035. Квартирный вопрос
036. Сладкий закон
037. Шито-крыто
038. Суперпапа
039. Атака клонов
040. Театр
041. Фото на память
042. Звезда
043. Настоящий парень
044. Улыбка фортуны
045. По-взрослому
046. Принц
047. Пропеллер
048. Сама невинность
049. Опыт общения
050. Безотказный
051. Розыгрыш
052. Ни капельки не страшно
053. Мнение окружающих
054. Срочный ремонт
055. Вознаграждение
056. Двойной Дружок
057. Военная тайна
058. Зеленый гоблин
059. Сальмаганди
060. Как стать Львом Яшей
061. Контакт
062. Ремонт
063. Черная суббота
064. Тайное общество волшебников
065. Потомки скажут спасибо
066. Игровая приставка
067. На благо науки
068. Дача
069. Ученик чародея
070. По закону
071. Чемпион
072. Крокодильи слезы
073. Второй шанс
074. Поединок
075. Верное средство
076. Рекорд Пекинеса
077. Игромания
078. Дедушка хочет на море
079. Туфли
080. Фейерверк
081. Большой
082. Скрепколет
083. Практическая магия
084. Прогулка
085. Важное событие
086. Домовой
087. Укрощение строптивой
088. Ночной сеанс
089. Дворовая история
090. Герой в блестящих доспехах
091. Одиночка
092. Пицца
093. Шпинат, шоколад и условный рефлекс
094. Физическая подготовка
095. Морской бой
096. Тайный поклонник
097. Дуэт сестер Барбоскиных
098. Раз шпаргалка,два шпаргалка
099. Неоценимая услуга
100. Клад
101. Любимый брат
102. Бал
103. В эфире - Новости!
104. Конкурс приколов
105. Фальшивый вирус
106. Пчелоптицепес
107. Глобальное потепление
108. Космический шлем
109. Бум-бум, шака-така!
110. Симулянт
111. Элементарная физика
112. Необычная ночь
113. Спорное искусство
114. Творческий поиск
115. Небольшая хитрость
116. Кулинарный шпионаж
117. Самый лучший дед
118. Саблезубая мышь
119. Острый сюжет
120. Фигурист
121. Семейный секрет
122. Маскировка
123. Деду Морозу до востребования
124. Сила трения
125. Морозная пластинка
126. Закаляйся
127. Снежный пёс
128. Серьезная подготовка
129. Аномалия
130. Весомый вклад
131. Вперед в прошлое
132. 33 й ген
133. Достоверные эмоции
134. Популярная психология
135. День уступок
136. Аленький цветочек
137. Билет на юг
138. Письмо
139. Сценическая речь
140. Как в кино
141. Пятерка по физкультуре
142. Воздухоплаватель
143. Лучший день
144. Прирожденный лидер
145. Самый честный город
146. Спасибо, Тимоха
147. Удача на завтрак
148. Спасение Земли
149. Мысленное излучение
150. Винтики-шпунтики
151. Романс
152. Пиастры
153. Чудес не бывает
154. Проявить смелость
155. Перезагрузка
156. Красота требует жертв
157. Амнезия
158. Здравствуй, Дедушка Мороз
159. Честный обмен
160. Резонанс
161. Потеряшка
162. Стать Золушкой
163. ЛучИК
164. Соперница
165. Фуэте
166. Дерево желаний
167. Ужасный друг для Малыша

Общее
Уникальный идентификатор : 172595257017822312001084873409118105072 (0x81D8A32B01C582359F50DDFC11C06DF0)
Полное имя : F:\TREKER\ТЕМР\barboskins_[tfile.ru]\barboskins_E001.mkv
Формат : Matroska
Версия формата : Version 2
Размер файла : 74,0 Мбайт
Продолжительность : 4 м. 48 с.
Общий поток : 2150 Кбит/сек
Дата кодирования : UTC 2018-01-27 07:24:15
Программа кодирования : mkvmerge v7.8.0 ('River Man') 32bit built on Apr 3 2015 12:11:22
Библиотека кодирования : libebml v1.3.1 + libmatroska v1.4.2

Видео
Идентификатор : 1
Формат : AVC
Формат/Информация : Advanced Video Codec
Профиль формата :
Параметр CABAC формата : Да
Параметр ReFrames формата : 1 кадр
Идентификатор кодека : V_MPEG4/ISO/AVC
Продолжительность : 4 м. 48 с.
Битрейт : 1916 Кбит/сек
Ширина : 1280 пикселей
Высота : 720 пикселей
Соотношение сторон : 16:9
Режим частоты кадров : Постоянный
Частота кадров : 25,000 кадров/сек
Цветовое пространство : YUV
Субдискретизация насыщенности : 4:2:0
Битовая глубина : 8 бит
Тип развёртки : Прогрессивная
Бит/(Пиксели*Кадры) : 0.083
Размер потока : 65,9 Мбайт (89%)
Default : Да
Forced : Нет
Цветовой диапазон : Limited
Основные цвета : BT.709
Характеристики трансфера : BT.709
Коэффициенты матрицы : BT.709

Аудио
Идентификатор : 2
Формат : AC-3
Формат/Информация : Audio Coding 3
Расширение режима : CM (complete main)
Параметр Endianness формата : Big
Идентификатор кодека : A_AC3
Продолжительность : 4 м. 48 с.
Вид битрейта : Постоянный
Битрейт : 192 Кбит/сек
Каналы : 2 канала
Расположение каналов : Front: L R
Частота : 44,1 КГц
Частота кадров : 28,711 кадров/сек (1536 spf)
Битовая глубина : 16 бит
Метод сжатия : С потерями
Размер потока : 6,61 Мбайт (9%)
Default : Да
Forced : Нет










   Похожие торренты   Торрент   Размер 
В этой теме нет новых непрочитанных сообщений. Иван Царевич и Серый Волк 3 (Дарина Шмидт) [2015, мультфильм, приключения, семейный, WEB-DLRip]

107 | 4

702 МБ

В этой теме нет новых непрочитанных сообщений. Иван Царевич и Серый Волк 3 (Дарина Шмидт) [2015, мультфильм, приключения, семейный, WEB-DLRip-AVC]

419 | 7

1.24 ГБ

В этой теме нет новых непрочитанных сообщений. Иван Царевич и Серый Волк 3 (Дарина Шмидт) [2015, мультфильм, приключения, семейный, WEB-DLRip-AVC]

626 | 6

1.36 ГБ

В этой теме нет новых непрочитанных сообщений. Иван Царевич и Серый Волк 3 (Дарина Шмидт) [2015, мультфильм, приключения, семейный, WEB-DLRip 1080p] / Мультфильмы (HD/BD Video)

1853 | 19

2.91 ГБ

В этой теме нет новых непрочитанных сообщений. Новые приключения кота Леопольда (1-13 серии из 13) (Анатолий Резников) [2015, мультфильм, детский, семейный, HDTVRip 720p] / Мультфильмы (HD/BD Video)

342 | 21

6.43 ГБ

В этой теме нет новых непрочитанных сообщений. Пингвиненок Пороро (1 сезон: 1-52 серии из 52) / Pororo the Little Penguin (Иль Хо Ким) [2007, мультфильм, детский, DVDRip] DUB

80 | 10

5.23 ГБ

В этой теме нет новых непрочитанных сообщений. Пингвиненок Пороро (1 сезон: 1-52 серии из 52) / Pororo the Little Penguin (Иль Хо Ким) [2007, мультфильм, детский, DVDRip-AVC] DUB

199 | 33

5.24 ГБ




Вы не можете начинать темы
Вы не можете отвечать на сообщения
Вы не можете редактировать свои сообщения
Вы не можете удалять свои сообщения
Вы не можете добавлять вложения

Перейти:  
Для Мосгорсуда, Роскомнадзора и рекламодателей: mosgorsud-torrent[собачка]yandex.ru
 Вход
ppkBB3cker v.2 © 2008-2014 @ PPK
[ Time : 0.042s | 18 Queries | GZIP : Off ]

cron