img image001 image001 image001 image001 image001 image001 image001 image001 image001 image001 image001 image001 image001 image001 image001
Planets Sun Sun Sun
Статистика раздачи
Автор: PriZraK | Размер: 3.55 ГБ | Добавлен: 12 фев 2018
Раздают: 12    Качают: 0
Скачать торрент
Скачать торрент
Описание торрента

СообщениеДобавлено: 12 фев 2018 

Лоракс / The Lorax
Перевод: Профессиональный (полное дублирование)
Субтитры: Русские, английские
Формат: BDRip, MKV, H.264, AC3/DTS
Страна: США
Режиссер: Крис Рено, Кайл Балда
Жанр: мультфильм, фэнтези, комедия, семейный
Продолжительность: 01:26:11
Год выпуска: 2012

В ролях: Дэнни ДеВито, Эд Хелмс, Зак Эфрон, Тейлор Свифт, Бетти Уайт, Роб Риггл, Дженни Слейт, Назим Пэдрад, Джоэл Светов, Майкл Битти

Описание: Недалекое будущее. Стоит нажать на кнопку — и мир изменится по твоему желанию: прямо под окном вырастут горы, во дворе зашумит океан. Единственная неприятность — все вокруг сделано из пластика. Но для влюбленного нет преград. Одно желание прекрасной девушки — увидеть последнее живое дерево — и он пускается в путь.



Видео: 1280x694p (1.85:1), 23.976 fps, AVC MPEG-4 (H.264), ~4375 kbps, 0.205 bit/pixel
Аудио #1: Русский: 48 kHz, DTS, 6 ch, ~755 kbps [Профессиональный (полное дублирование)]
Аудио #2: Английский: 48 kHz, AC3 Dolby Digital, 6 ch, ~640 kbps [Оригинал]

Format : Matroska
File size : 3.55 GiB
Duration : 1h 26mn
Overall bit rate : 5 887 Kbps
Encoded date : UTC 2012-08-09 10:56:13
Writing application : mkvmerge v4.5.0 ('Speed of Light') сборка от Feb 1 2011 02:10:32
Writing library : libebml v1.2.0 + libmatroska v1.1.0
Video
ID : 1
Format : AVC
Format/Info : Advanced Video Codec
Format profile :
Format settings, CABAC : Yes
Format settings, ReFrames : 9 frames
Codec ID : V_MPEG4/ISO/AVC
Duration : 1h 26mn
Bit rate : 4 375 Kbps
Width : 1 280 pixels
Height : 694 pixels
Display aspect ratio : 16:9
Frame rate : 23.976 fps
Color space : YUV
Chroma subsampling : 4:2:0
Bit depth : 8 bits
Scan type : Progressive
Bits/(Pixel*Frame) : 0.205
Stream size : 2.64 GiB (74%)
Title : The Lorax (2012)
Writing library : x264 core 125 r2208 d9d2288
Encoding settings : cabac=1 / ref=9 / deblock=1:-3:-3 / analyse=0x3:0x113 / me=tesa / subme=11 / psy=1 / psy_rd=1.00:0.00 / mixed_ref=1 / me_range=16 / chroma_me=1 / trellis=2 / 8x8dct=1 / cqm=0 / deadzone=21,11 / fast_pskip=0 / chroma_qp_offset=-2 / threads=12 / lookahead_threads=2 / sliced_threads=0 / nr=0 / decimate=0 / interlaced=0 / bluray_compat=0 / constrained_intra=0 / bframes=8 / b_pyramid=2 / b_adapt=2 / b_bias=0 / direct=3 / weightb=1 / open_gop=0 / weightp=2 / keyint=250 / keyint_min=23 / scenecut=40 / intra_refresh=0 / rc=crf / mbtree=0 / crf=16.5 / qcomp=0.60 / qpmin=0 / qpmax=69 / qpstep=4 / ip_ratio=1.40 / pb_ratio=1.30 / aq=1:0.98
Language : English
Matrix coefficients : BT.709-5, BT.1361, IEC 61966-2-4 709, SMPTE RP177
Audio #1
ID : 2
Format : DTS
Format/Info : Digital Theater Systems
Codec ID : A_DTS
Duration : 1h 26mn
Bit rate mode : Constant
Bit rate : 755 Kbps
Channel(s) : 6 channels
Channel positions : Front: L C R, Side: L R, LFE
Sampling rate : 48.0 KHz
Bit depth : 24 bits
Compression mode : Lossy
Stream size : 466 MiB (13%)
Title : Дублированный
Language : Russian
Audio #2
ID : 3
Format : AC-3
Format/Info : Audio Coding 3
Mode extension : CM (complete main)
Codec ID : A_AC3
Duration : 1h 26mn
Bit rate mode : Constant
Bit rate : 640 Kbps
Channel(s) : 6 channels
Channel positions : Front: L C R, Side: L R, LFE
Sampling rate : 48.0 KHz
Bit depth : 16 bits
Compression mode : Lossy
Stream size : 395 MiB (11%)
Language : English
Text #1
ID : 4
Format : UTF-8
Codec ID : S_TEXT/UTF8
Codec ID/Info : UTF-8 Plain Text
Language : Russian
Text #2
ID : 5
Format : UTF-8
Codec ID : S_TEXT/UTF8
Codec ID/Info : UTF-8 Plain Text
Language : English
Text #3
ID : 6
Format : UTF-8
Codec ID : S_TEXT/UTF8
Codec ID/Info : UTF-8 Plain Text
Title : SDH
Language : English
Menu
00:00:00.000 : en:00:00:00.000
00:04:13.003 : en:00:04:13.003
00:06:38.481 : en:00:06:38.481
00:10:04.771 : en:00:10:04.771
00:13:56.127 : en:00:13:56.127
00:16:39.874 : en:00:16:39.874
00:21:30.414 : en:00:21:30.414
00:28:18.488 : en:00:28:18.488
00:32:49.175 : en:00:32:49.175
00:39:49.554 : en:00:39:49.554
00:42:26.419 : en:00:42:26.419
00:45:45.034 : en:00:45:45.034
00:51:21.578 : en:00:51:21.578
00:56:32.848 : en:00:56:32.848
00:59:07.836 : en:00:59:07.836
01:03:18.461 : en:01:03:18.461
01:07:13.821 : en:01:07:13.821
01:12:35.726 : en:01:12:35.726
01:16:05.102 : en:01:16:05.102
01:20:23.402 : en:01:20:23.402












   Похожие торренты   Торрент   Размер 
В этой теме нет новых непрочитанных сообщений. Лоракс / The Lorax (Крис Рено, Кайл Балда) [2012, мультфильм, фэнтези, комедия, семейный, BDRip] DUB

14 | 5

745.06 МБ

В этой теме нет новых непрочитанных сообщений. Гадкий я 3 / Despicable Me 3 (Эрик Гуильон, Кайл Балда, Пьер Коффан) [2017, мультфильм, фантастика, комедия, приключения, семейный, BDRip 720p] DUB

685 | 20

3.58 ГБ

В этой теме нет новых непрочитанных сообщений. Монстры на каникулах 2 / Hotel Transylvania 2 (Генндий Тартаковский) [2015, Мультфильм, фэнтези, комедия, семейный, BDRip 720p (60 fps)] DUB / Мультфильмы (HD/BD Video)

228 | 10

5.09 ГБ

В этой теме нет новых непрочитанных сообщений. Монстры на каникулах 2 / Hotel Transylvania 2 (Генндий Тартаковский) [2015, мультфильм, фэнтези, комедия, семейный, BDRip 720p] 2xDUB (rus, ukr) / Мультфильмы (HD/BD Video)

1314 | 70

3.57 ГБ

В этой теме нет новых непрочитанных сообщений. Гадкий я 3 / Despicable Me 3 (Эрик Гуильон, Кайл Балда, Пьер Коффан) [2017, мультфильм, фантастика, комедия, приключения, семейный, BDRip-AVC] DUB

75 | 12

1.87 ГБ

В этой теме нет новых непрочитанных сообщений. Гадкий я 3 / Despicable Me 3 (Эрик Гуильон, Кайл Балда, Пьер Коффан) [2017, мультфильм, фантастика, комедия, приключения, семейный, BDRip 1080p] DUB

240 | 12

5.56 ГБ

В этой теме нет новых непрочитанных сообщений. Тайна Коко / Coco (Эдриан Молина, Ли Анкрич) [2017, мультфильм, фэнтези, комедия, детектив, приключения, семейный, BDRip 720p] DUB [Line] / Мультфильмы (HD/BD Video)

203 | 4

4.73 ГБ




Вы не можете начинать темы
Вы не можете отвечать на сообщения
Вы не можете редактировать свои сообщения
Вы не можете удалять свои сообщения
Вы не можете добавлять вложения

Перейти:  
Для Мосгорсуда, Роскомнадзора и рекламодателей: mosgorsud-torrent[собачка]yandex.ru
 Вход
ppkBB3cker v.2 © 2008-2014 @ PPK
[ Time : 0.035s | 18 Queries | GZIP : Off ]

cron