img image001 image001 image001 image001 image001 image001 image001 image001 image001 image001 image001 image001 image001 image001 image001
Planets Sun Sun Sun
Статистика раздачи
Автор: PriZraK | Размер: 6.67 ГБ | Добавлен: 12 фев 2018
Раздают: 11    Качают: 1
Скачать торрент
Скачать торрент
Описание торрента

СообщениеДобавлено: 12 фев 2018 

Утиные истории / DuckTales

Перевод: Профессиональный (многоголосый, закадровый) IdeaFilm
Субтитры: отсутствуют
Формат: WEB-DL, MKV, H.264, AC3
Страна: США
Режиссер: Дана Террас
Жанр: Мультфильм, комедия, приключения, семейный
Всего серий: 9
Продолжительность: 9 х ~00:25:00
Год выпуска: 2017

В ролях: Тони Ансельмо, Эрик Бауза, Бек Беннетт, Джош Бренер, Кори Бёртон, Кит Фергюсон, Кимико Гленн, Эллисон Джэнни, Марго Мартиндейл, Кейт Микуччи

Описание: «Утиные истории» перезапуск известного одноимённого мультсериала 1987 года.

Рейтинг на:

Видео: 1280x720 (16/9), 23,976 fps, AVC (х264), , ~3973 kbps avg, 0.180 bit/pixel
Аудио #1 Rus: :48 kHz, AC3 Dolby Digital, 3/2 (L,C,R,l,r) + LFE ch, ~384 kbps
Аудио #1 Eng: :48 kHz, AC3 Dolby Digital, 3/2 (L,C,R,l,r) + LFE ch, ~384 kbps

Внимание, присутствует реклама!


Общее
Уникальный идентификатор : 195096548386838499591667276274227742534 (0x92C63A7C4146792E97E3E9C0A4200746)
Полное имя : G:\IDEAFILM\DuckTales.2017.S01.WEB-DL.720p\DuckTales.2017.S01E01-02.WEB-DL.720p-IDEAFILM.mkv
Формат : Matroska
Версия формата : Version 4 / Version 2
Размер файла : 1,48 Гбайт
Продолжительность : 44 м. 43 с.
Общий поток : 4742 Кбит/сек
Дата кодирования : UTC 2017-09-13 09:58:45
Программа кодирования : mkvmerge v12.0.0 ('Trust / Lust') 64bit
Библиотека кодирования : libebml v1.3.4 + libmatroska v1.4.5

Видео
Идентификатор : 1
Формат : AVC
Формат/Информация : Advanced Video Codec
Профиль формата :
Параметр CABAC формата : Да
Параметр ReFrames формата : 3 кадра
Идентификатор кодека : V_MPEG4/ISO/AVC
Продолжительность : 44 м. 43 с.
Битрейт : 3973 Кбит/сек
Ширина : 1280 пикселей
Высота : 720 пикселей
Соотношение сторон : 16:9
Режим частоты кадров : Постоянный
Частота кадров : 23,976 (24000/1001) кадра/сек
Стандарт вещания : NTSC
Цветовое пространство : YUV
Субдискретизация насыщенности : 4:2:0
Битовая глубина : 8 бит
Тип развёртки : Прогрессивная
Бит/(Пиксели*Кадры) : 0.180
Размер потока : 1,24 Гбайт (84%)
Язык : English
Default : Да
Forced : Нет
Цветовой диапазон : Limited
Основные цвета : BT.709
Характеристики трансфера : BT.709
Коэффициенты матрицы : BT.709

Аудио #1
Идентификатор : 2
Формат : AC-3
Формат/Информация : Audio Coding 3
Расширение режима : CM (complete main)
Параметр Endianness формата : Big
Идентификатор кодека : A_AC3
Продолжительность : 44 м. 43 с.
Вид битрейта : Постоянный
Битрейт : 384 Кбит/сек
Каналы : 6 каналов
Расположение каналов : Front: L C R, Side: L R, LFE
Частота : 48,0 КГц
Частота кадров : 31,250 кадров/сек (1536 spf)
Метод сжатия : С потерями
Размер потока : 123 Мбайт (8%)
Заголовок : IDEAFILM
Язык : Russian
Default : Да
Forced : Нет

Аудио #2
Идентификатор : 3
Формат : AC-3
Формат/Информация : Audio Coding 3
Расширение режима : CM (complete main)
Параметр Endianness формата : Big
Идентификатор кодека : A_AC3
Продолжительность : 44 м. 34 с.
Вид битрейта : Постоянный
Битрейт : 384 Кбит/сек
Каналы : 6 каналов
Расположение каналов : Front: L C R, Side: L R, LFE
Частота : 48,0 КГц
Частота кадров : 31,250 кадров/сек (1536 spf)
Метод сжатия : С потерями
Задержка видео : 9 с. 0 мс.
Размер потока : 122 Мбайт (8%)
Язык : English
Default : Нет
Forced : Нет







   Похожие торренты   Торрент   Размер 
В этой теме нет новых непрочитанных сообщений. Утиные истории (1 сезон, 01-09 серии из 09) / DuckTale [IdeaFilm] (Дана Террас) [2017, Мультфильм, комедия, приключения, семейный, WEB-DL 1080p, P] / Walt Disney

6 | 8

8.89 ГБ

В этой теме нет новых непрочитанных сообщений. Утиные истории (1 сезон, 01-09 серии из 09) / DuckTale [IdeaFilm] (Дана Террас) [2017, Мультфильм, комедия, приключения, семейный, WEB-DLRip, P] / Walt Disney

31 | 1

2.47 ГБ

В этой теме нет новых непрочитанных сообщений. Утиные истории (1 сезон, 01-04 серии из 23) / DuckTale [IdeaFilm] (Дана Террас) [2017, Мультфильм, комедия, приключения, семейный, WEB-DL 720p, P]

6 | 0

2.83 ГБ

В этой теме нет новых непрочитанных сообщений. Утиные истории (1 сезон: 1-2 серии) / DuckTales (Дана Террас) [2017, комедия, приключения, семейный, WEB-DL 1080p] MVO / Walt Disney

13 | 0

1.62 ГБ

В этой теме нет новых непрочитанных сообщений. Утиные истории (1 сезон: 1-4 серии) / DuckTales (Дана Террас) [2017, комедия, приключения, семейный, WEB-DL 1080p] MVO / Walt Disney

11 | 2

4.05 ГБ

В этой теме нет новых непрочитанных сообщений. Утиные истории (1 сезон: 1-3 серии) / DuckTales (Дана Террас) (Новый ремейк) [2017, комедия, приключения, семейный, WEB-DL 720р] MVO / Walt Disney

28 | 4

2.23 ГБ

В этой теме нет новых непрочитанных сообщений. Утиные истории (1 сезон: 1-2 серии) / DuckTales (Дана Террас) (Новый ремейк) [2017, комедия, приключения, семейный, WEB-DL 720р] MVO / Walt Disney

25 | 0

1.11 ГБ




Вы не можете начинать темы
Вы не можете отвечать на сообщения
Вы не можете редактировать свои сообщения
Вы не можете удалять свои сообщения
Вы не можете добавлять вложения

Перейти:  
Для Мосгорсуда, Роскомнадзора и рекламодателей: mosgorsud-torrent[собачка]yandex.ru
 Вход
ppkBB3cker v.2 © 2008-2014 @ PPK
[ Time : 0.027s | 18 Queries | GZIP : Off ]

cron