img image001 image001 image001 image001 image001 image001 image001 image001 image001 image001 image001 image001 image001 image001 image001 image001
Planets Sun Sun Sun
Статистика раздачи
Автор: PriZraK | Размер: 460.35 МБ | Добавлен: 12 фев 2018
Раздают: 7    Качают: 0
Скачать торрент
Скачать торрент
Описание торрента

СообщениеДобавлено: 12 фев 2018 

Крошка Тайсё / Taishou Mebiusline: Chicchai-san / 大正メビウスライン ちっちゃいさん


Перевод: Любительский (одноголосый) - AniDUB
Субтитры: отсутствуют
Хардсаб: отсутствует

Формат: WEBRip, MP4, H.264, AAC
Страна: Япония
Режиссер: Ватанабэ Сю / Watanabe Shuu / 渡部周
Жанр: приключения, романтика
Продолжительность: ТВ (12 эп.), 5 мин.
Год выпуска: 2017
Перевод на русский: YakuSub Studio
Тайминг и работа со звуком: Berserk

Озвучка: Berserk

Студия:

Описание: Начало XX века, эпоха Тайсё. Япония ведет войну с соседними странами. Главный герой Хиираги Кюитиро - курсант, прибывший в Токио, чтобы вступить в ряды японской армии. Однако он сталкивается с жаждой военной мощи, алчущей поглотить все и даже его собственную жизнь...



Видео: 1280 x 720 (16:9) at 23.976 fps, AVC (x264), [email protected], 1776 Kbps avg, 0.080 bit/pixel, 8 bit
Аудио: 48.0 kHz, AAC, 2 ch, 128 kbps avg

Общее
Полное имя : [AniDub]_Taishou_Chicchai-san_[720p]_[Berserk] / [AniDub]_Taishou_Chicchai-san_[01]_[720p_x264_Aac]_[Berserk].mp4
Формат : MPEG-4
Профиль формата : Base Media
Идентификатор кодека : isom (isom/avc1)
Размер файла : 47,4 Мбайт
Продолжительность : 3 м. 30 с.
Режим общего битрейта : Переменный
Общий поток : 1891 Кбит/сек
Дата кодирования : UTC 2017-11-12 22:30:13
Дата пометки : UTC 2017-11-12 22:30:13
Программа кодирования : Yamb 2.1.0.0 [http://yamb.unite-video.com]

Видео
Идентификатор : 1
Формат : AVC
Формат/Информация : Advanced Video Codec
Профиль формата : [email protected]
Настройки формата : CABAC / 6 Ref Frames
Параметр CABAC формата : Да
Параметр RefFrames формата : 6 кадров
Идентификатор кодека : avc1
Идентификатор кодека/Информация : Advanced Video Coding
Продолжительность : 3 м. 30 с.
Битрейт : 1776 Кбит/сек
Максимальный битрейт : 5840 Кбит/сек
Ширина : 1280 пикселей
Высота : 720 пикселей
Соотношение сторон : 16:9
Режим частоты кадров : Постоянный
Частота кадров : 23,976 (24000/1001) кадра/сек
Частота кадров в оригинале : 23,976 (23976/1000) кадра/сек
Цветовое пространство : YUV
Субдискретизация насыщенности : 4:2:0
Битовая глубина : 8 бит
Тип развёртки : Прогрессивная
Бит/(Пиксели*Кадры) : 0.080
Размер потока : 44,0 Мбайт (93%)
Библиотека кодирования : x264 core 120 r2120 0c7dab9
Настройки программы : cabac=1 / ref=6 / deblock=1:1:1 / analyse=0x3:0x113 / me=umh / subme=8 / psy=1 / psy_rd=0.40:0.00 / mixed_ref=1 / me_range=16 / chroma_me=1 / trellis=1 / 8x8dct=1 / cqm=0 / deadzone=21,11 / fast_pskip=1 / chroma_qp_offset=-2 / threads=4 / sliced_threads=0 / nr=0 / decimate=1 / interlaced=0 / bluray_compat=0 / constrained_intra=0 / bframes=3 / b_pyramid=2 / b_adapt=2 / b_bias=0 / direct=3 / weightb=1 / open_gop=0 / weightp=2 / keyint=250 / keyint_min=23 / scenecut=40 / intra_refresh=0 / rc_lookahead=50 / rc=2pass / mbtree=1 / bitrate=1776 / ratetol=1.0 / qcomp=0.60 / qpmin=0 / qpmax=69 / qpstep=4 / cplxblur=20.0 / qblur=0.5 / vbv_maxrate=3552 / vbv_bufsize=8880 / nal_hrd=none / ip_ratio=1.40 / aq=1:0.60
Дата кодирования : UTC 2017-11-12 22:30:13
Дата пометки : UTC 2017-11-12 22:30:14

Аудио
Идентификатор : 2
Формат : AAC
Формат/Информация : Advanced Audio Codec
Профиль формата : LC
Идентификатор кодека : mp4a-40-2
Продолжительность : 3 м. 30 с.
Вид битрейта : Переменный
Битрейт : 128 Кбит/сек
Максимальный битрейт : 136 Кбит/сек
Каналы : 2 канала
Расположение каналов : Front: L R
Частота : 48,0 КГц
Частота кадров : 46,875 кадров/сек (1024 SPF)
Метод сжатия : С потерями
Размер потока : 3,21 Мбайт (7%)
Дата кодирования : UTC 2017-11-12 22:30:13
Дата пометки : UTC 2017-11-12 22:30:14














   Похожие торренты   Торрент   Размер 
В этой теме нет новых непрочитанных сообщений. Тяжёлый объект / Heavy Object [I.D.A] (Ватанабэ Такаси) [TV-1] [2 из 24] [RAW] [RUS] [2015, Приключения, Экшен, Меха, Фантастика, Драма, WEBRip] [720p]

6 | 4

2.18 ГБ

В этой теме нет новых непрочитанных сообщений. Тяжелый Объект / Heavy Object (Ватанабэ Такаси) [TV-1] [1-14 из 24] [Ancord & Jade & Fuurou & Nika Lenina] [RAW] [RUS] [2015-2016 г., приключения, HDTVRip] [720p]

1 | 3

6.41 ГБ

В этой теме нет новых непрочитанных сообщений. Полное Затмение: Черные Метки / Total Eclipse: Schwarzesmarken (Ватанабэ Тэцуя) [TV-1] [1 из 25] [Ancord & Nika Lenina] [RAW] [RUS] [2016 г., приключения, фантастика, меха, HDTVRip] [720p]

9 | 2

336.02 МБ

В этой теме нет новых непрочитанных сообщений. Романтика романса [08х01] (2017) WEBRip от Files-х

0 | 0

1.33 ГБ

В этой теме нет новых непрочитанных сообщений. Романтика романса [08х01] (2017) WEBRip от Files-х

0 | 0

1.98 ГБ

В этой теме нет новых непрочитанных сообщений. Сделано в Бездне / Созданный в Бездне / Made in Abyss (Кодзима Масаюки) [TV] [01-02 из 13] [RAW] [RUS(int)] [2017, приключения, WEBRip] [720р]

6 | 2

636.91 МБ

В этой теме нет новых непрочитанных сообщений. Сделано в Бездне / Созданный в Бездне / Made in Abyss (Кодзима Масаюки) [TV] [01-08 из 13] [RAW] [RUS(int)] [2017, приключения, WEBRip] [720р]

4 | 0

2.62 ГБ




Вы не можете начинать темы
Вы не можете отвечать на сообщения
Вы не можете редактировать свои сообщения
Вы не можете удалять свои сообщения
Вы не можете добавлять вложения

Перейти:  
Для Мосгорсуда, Роскомнадзора и рекламодателей: mosgorsud-torrent[собачка]yandex.ru
 Вход
ppkBB3cker v.2 © 2008-2014 @ PPK
[ Time : 0.055s | 18 Queries | GZIP : Off ]

cron