img image001 image001 image001 image001 image001 image001 image001 image001 image001 image001 image001 image001 image001 image001 image001 image001
Planets Sun Sun Sun
Статистика раздачи
Автор: PriZraK | Размер: 266.6 МБ | Добавлен: 12 фев 2018
Раздают: 3    Качают: 0
Скачать торрент
Скачать торрент
Описание торрента

СообщениеДобавлено: 12 фев 2018 

Вайолет Эвергарден / Violet Evergarden / ヴァイオレット・エヴァーガーデン


Перевод: Профессиональный (двухголосый закадровый)
Субтитры: отсутстсвуют
Хардсаб: есть (надписи, логотип)

Формат: WebRip, MP4, H.264, AAC
Страна: Япония
Режиссер: Исидатэ Тайти
Жанр: Приключения, Драма, Фэнтези
Продолжительность: ТВ (14 эп.), 25 мин.
Год выпуска: 2018
Озвучено: LE-Prodyuction
Текст читают:Тимиркан Сиюхов & Маргарита Щелкунова

Студии: &

Описание: Профессор Орландо ради своей любимой супруги Молли был готов пойти на многое. Когда та начала терять зрение, профессор создал человекообразного робота, чтобы он помогал ей.
Это изобретение он назвал «автозапоминающей куклой». Внешне робот был прекрасен: он выглядел как молодая девушка и должен был выполнять все пожелания своих владельцев. В итоге многие фирмы и компании начали приобретать таких роботов. Эти куклы получили широкий спрос, и профессор охотно продал права на их создание.
Одну из автозапоминающих кукол зовут Вайолет Эвергарден. Она работает на почте, и здесь рассказывается её увлекательная история «жизни».


Видео: 1280 x 720 (16:9), 23.976 fps, AVC MPEG-4 (x264) [email protected], ~1 311 Kbps avg, 0.059 bit/pixel
Аудио: Rus: 48.0 kHz, AAC, 2 ch, 256 kbps avg

Перевод на русский: Sa4ko aka Kiyoso

Релиз от:

01. "Я люблю тебя" и "Автозапоминающие Куклы"
Общее
Format : MPEG-4
Format profile : Base Media
Codec ID : isom (isom/avc1)
File size : 267 MiB
Duration : 23 min 46 s
Overall bit rate mode : Variable
Overall bit rate : 1 568 kb/s
Encoded date : UTC 2018-01-12 17:11:02
Tagged date : UTC 2018-01-12 17:11:02
Copyright : le-production.tv

Video
ID : 1
Format : AVC
Format/Info : Advanced Video Codec
Format profile : [email protected]
Format settings : CABAC / 4 Ref Frames
Format settings, CABAC : Yes
Format settings, ReFrames : 4 frames
Codec ID : avc1
Codec ID/Info : Advanced Video Coding
Duration : 23 min 46 s
Bit rate : 1 311 kb/s
Maximum bit rate : 7 665 kb/s
Width : 1 280 pixels
Height : 720 pixels
Display aspect ratio : 16:9
Frame rate mode : Constant
Frame rate : 23.976 (24000/1001) FPS
Original frame rate : 23.976 (23976/1000) FPS
Color space : YUV
Chroma subsampling : 4:2:0
Bit depth : 8 bits
Scan type : Progressive
Bits/(Pixel*Frame) : 0.059
Stream size : 223 MiB (84%)
Writing library : x264 core 148 r2638 7599210
Encoding settings : cabac=1 / ref=1 / deblock=1:1:1 / analyse=0x3:0x3 / me=dia / subme=1 / psy=1 / psy_rd=0.40:0.00 / mixed_ref=0 / me_range=16 / chroma_me=1 / trellis=0 / 8x8dct=1 / cqm=0 / deadzone=21,11 / fast_pskip=1 / chroma_qp_offset=0 / threads=12 / lookahead_threads=2 / sliced_threads=0 / nr=0 / decimate=1 / interlaced=0 / bluray_compat=0 / constrained_intra=0 / bframes=5 / b_pyramid=2 / b_adapt=1 / b_bias=0 / direct=1 / weightb=1 / open_gop=0 / weightp=1 / keyint=250 / keyint_min=23 / scenecut=40 / intra_refresh=0 / rc=crf / mbtree=0 / crf=22.0 / qcomp=0.60 / qpmin=0 / qpmax=69 / qpstep=4 / ip_ratio=1.40 / pb_ratio=1.30 / aq=1:0.60
Language : Russian
Encoded date : UTC 2018-01-12 17:11:02
Tagged date : UTC 2018-01-12 17:11:10

Audio
ID : 2
Format : AAC
Format/Info : Advanced Audio Codec
Format profile : LC
Codec ID : mp4a-40-2
Duration : 23 min 46 s
Bit rate mode : Variable
Bit rate : 253 kb/s
Maximum bit rate : 261 kb/s
Channel(s) : 2 channels
Channel positions : Front: L R
Sampling rate : 48.0 kHz
Frame rate : 46.875 FPS (1024 SPF)
Compression mode : Lossy
Stream size : 43.1 MiB (16%)
Language : Russian
Encoded date : UTC 2018-01-12 17:11:05
Tagged date : UTC 2018-01-12 17:11:10






   Похожие торренты   Торрент   Размер 
В этой теме нет новых непрочитанных сообщений. Вайолет Эвергарден / Violet Evergarden [01-05 из 14] (2018) WEBRip 720p | AniLibria

0 | 1

1.49 ГБ

В этой теме нет новых непрочитанных сообщений. Вайолет Эвергарден / Violet Evergarden [01-04 из 14] (2018) WEBRip-HEVC 720p | AniLibria

0 | 0

1.21 ГБ

В этой теме нет новых непрочитанных сообщений. Вайолет Эвергарден / Violet Evergarden [01-02 из 14] (2018) WEBRip 1080p | AniFilm

26 | 2

1.06 ГБ

В этой теме нет новых непрочитанных сообщений. Вайолет Эвергарден / Violet Evergarden [01 из 14] (2018) WEBRip 1080p | AniFilm

27 | 3

658.8 МБ

В этой теме нет новых непрочитанных сообщений. Вайолет Эвергарден / Violet Evergarden [01-05 из 14] (2018) WEBRip 1080p | AniLibria

1 | 0

2.56 ГБ

В этой теме нет новых непрочитанных сообщений. Вайолет Эвергарден / Violet Evergarden [01-04 из 14] (2018) WEBRip-HEVC 1080p | AniLibria

0 | 1

2.09 ГБ

В этой теме нет новых непрочитанных сообщений. Берсерк [ТВ-3] / Berserk (2017) (Итагаки Син) [TV-3] [01-10 из >13] [Полухардсаб] [RUS(int)] [2017, приключения, фэнтези, WEBRip] [1080p]

2 | 0

7.66 ГБ




Вы не можете начинать темы
Вы не можете отвечать на сообщения
Вы не можете редактировать свои сообщения
Вы не можете удалять свои сообщения
Вы не можете добавлять вложения

Перейти:  
Для Мосгорсуда, Роскомнадзора и рекламодателей: mosgorsud-torrent[собачка]yandex.ru
 Вход
ppkBB3cker v.2 © 2008-2014 @ PPK
[ Time : 0.048s | 18 Queries | GZIP : Off ]

cron