img image001 image001 image001 image001 image001 image001 image001 image001 image001 image001 image001 image001 image001 image001 image001
Planets Sun Sun Sun
Статистика раздачи
Автор: PriZraK | Размер: 1.71 ГБ | Добавлен: 12 фев 2018
Раздают: 10    Качают: 0
Скачать торрент
Скачать торрент
Описание торрента

СообщениеДобавлено: 12 фев 2018 

Город предсказательниц / Urara Meirochou



Жанр: Приключения, Комедия, Сёнен
Продолжительность: ТВ (12 эп.), 25 мин.
Рейтинг World-art: 6.6 из 10
Рейтинг IMDb: 7.4 из 10
Рейтинг КиноПоиск.RU: 7.4 из 10
Рейтинг рейтинг MPAA: PG

Перевод: двухголосый, закадровый
Озвучивание: Лизавета & Dancel (SHIZA)

Страна: Япония
Режиссер: Судзуки Ёхэй
Студия: J.C. Staff
Формат: HDRip, MKV, H.265, AC3
Год выпуска: 2017

В главных ролях: Тия, Кон, Комэ, Ноно
Роли озвучивали: Харада Саяка, Хондо Каэдэ, Кубо Юрика, Ёсимура Харука

Описание: В город Мэйро-чё, где живут и обучаются ремеслу предсказательниц девушки со всей страны, из далекой горной деревушки, приезжает Чия. Она, как и многие другие девушки, держащие путь в этот городок, пришла сюда с одной непростой целью – стать главной и самой лучшей предсказательницей, которая носит звание Урара, но это не единственная ее цель.
На пути к своей мечте Чия встречает верных подруг: серьёзную и искреннюю Тацуми Кон, Юкими Коумэ - фанатку всего, что имеет общее с западной культурой, а также скромную и застенчивую девушку по имени Нацумэ Ноно. У четырёх героинь этого произведения общая мечта, но добиться звания главной прорицательницы Урара сможет только одна девушка. Не помешает ли конкуренция юным ученицам? Смогут ли они сохранить свою дружбу, несмотря ни на что?


Хардсаб: отсутствует
Субтитры: отсутствуют
Видео: 1280x720 (16:9), 23.976 fps, HEVC (x265) @Main, ~ 900 kbps avg, ~ 0.033 bit/pixel, 8 bits
Аудио: AC-3, 44.1 KHz, 2 ch, (Front: L R), ~192 kbps avg

Общее
Уникальный идентификатор : 232197773059941080711503579511148957676 (0xAEAFAA172452F86A55B93AB8B3EECFEC)
Полное имя : F:\Торрент\Файлы\Gorod_predskazatelnits_Urara_Meirochou_S1_01-12_HDRip_x265_720p\Urara Meirochou S1-01 [HDrip 1280x720 x265].mkv
Формат : Matroska
Версия формата : Version 4 / Version 2
Размер файла : 162 Мбайт
Продолжительность : 24 м.
Общий поток : 935 Кбит/сек
Программа кодирования : Lavf57.41.100
Библиотека кодирования : Lavf57.41.100 / Lavf57.41.100

Видео
Идентификатор : 1
Формат : HEVC
Формат/Информация : High Efficiency Video Coding
Профиль формата : @Main
Идентификатор кодека : V_MPEGH/ISO/HEVC
Продолжительность : 24 м.
Битрейт : 724 Кбит/сек
Ширина : 1280 пикселей
Высота : 720 пикселей
Соотношение сторон : 16:9
Режим частоты кадров : Постоянный
Частота кадров : 23,976 (23976/1000) кадра/сек
Цветовое пространство : YUV
Субдискретизация насыщенности : 4:2:0
Битовая глубина : 8 бит
Бит/(Пиксели*Кадры) : 0.033
Размер потока : 125 Мбайт (77%)
Библиотека кодирования : x265 1.9:[Windows][GCC 4.9.3][32 bit] 8bit
Настройки программы : wpp / ctu=64 / min-cu-size=8 / max-tu-size=32 / tu-intra-depth=1 / tu-inter-depth=1 / me=1 / subme=2 / merange=57 / no-rect / no-amp / max-merge=2 / temporal-mvp / no-early-skip / rdpenalty=0 / no-tskip / no-tskip-fast / strong-intra-smoothing / no-lossless / no-cu-lossless / no-constrained-intra / no-fast-intra / open-gop / no-temporal-layers / interlace=0 / keyint=250 / min-keyint=23 / scenecut=40 / rc-lookahead=20 / lookahead-slices=4 / bframes=4 / bframe-bias=0 / b-adapt=2 / ref=3 / limit-refs=3 / no-limit-modes / weightp / no-weightb / aq-mode=1 / qg-size=32 / aq-strength=1.00 / cbqpoffs=0 / crqpoffs=0 / rd=3 / psy-rd=2.00 / rdoq-level=0 / psy-rdoq=0.00 / signhide / deblock / sao / no-sao-non-deblock / b-pyramid / cutree / no-intra-refresh / rc=crf / crf=22.0 / qcomp=0.60 / qpmin=0 / qpmax=51 / qpstep=4 / ipratio=1.40 / pbratio=1.30
Default : Нет
Forced : Нет
Statistics Tags Issue : mkvmerge v14.0.0 ('Flow') 64bit 2017-12-08 19:50:25 / Lavf57.41.100
FromStats_BitRate : 2852451
FromStats_Duration : 00:24:12.453000000
FromStats_FrameCount : 34824
FromStats_StreamSize : 517880728

Аудио
Идентификатор : 2
Формат : AC-3
Формат/Информация : Audio Coding 3
Расширение режима : CM (complete main)
Параметр Endianness формата : Big
Идентификатор кодека : A_AC3
Продолжительность : 24 м.
Вид битрейта : Постоянный
Битрейт : 192 Кбит/сек
Каналы : 2 канала
Расположение каналов : Front: L R
Частота : 48,0 КГц
Частота кадров : 31,250 кадров/сек (1536 spf)
Метод сжатия : С потерями
Размер потока : 33,2 Мбайт (21%)
Язык : Russian
Default : Да
Forced : Нет
Statistics Tags Issue : mkvmerge v14.0.0 ('Flow') 64bit 2017-12-08 19:50:25 / Lavf57.41.100
FromStats_BitRate : 192000
FromStats_Duration : 00:24:12.448000000
FromStats_FrameCount : 45389
FromStats_StreamSize : 34858752





   Похожие торренты   Торрент   Размер 
В этой теме нет новых непрочитанных сообщений. Urara Meirochou / Город предсказательниц [01 из 12] (2017) HDTVRip 720p | SEKAI PROJECT

3 | 0

360.62 МБ

В этой теме нет новых непрочитанных сообщений. Город предсказательниц / Urara Meirochou [01-02 из 12] (2017) HDTVRip 720p | SEKAI PROJECT

2 | 0

686.81 МБ

В этой теме нет новых непрочитанных сообщений. Город предсказательниц / Urara Meirochou [S01] (2017) HDTVRip 720p | SHIZA Project

12 | 1

5.35 ГБ

В этой теме нет новых непрочитанных сообщений. Город предсказательниц / Urara Meirochou [01-05 из 12] (2017) HDTVRip 720p | SHIZA Project

0 | 0

3.91 ГБ

В этой теме нет новых непрочитанных сообщений. Город предсказательниц / Urara Meirochou [01-05 из 12] (2017) HDTVRip 720p | SHIZA Project

8 | 2

2.56 ГБ

В этой теме нет новых непрочитанных сообщений. Город предсказательниц / Urara Meirochou [01-05 из 12] (2017) HDTVRip 720p | SHIZA Project

3 | 2

2.17 ГБ

В этой теме нет новых непрочитанных сообщений. Город предсказательниц / Urara Meirochou [01-05 из 12] (2017) HDTVRip 720p | SHIZA Project

0 | 4

3 ГБ




Вы не можете начинать темы
Вы не можете отвечать на сообщения
Вы не можете редактировать свои сообщения
Вы не можете удалять свои сообщения
Вы не можете добавлять вложения

Перейти:  
Для Мосгорсуда, Роскомнадзора и рекламодателей: mosgorsud-torrent[собачка]yandex.ru
 Вход
ppkBB3cker v.2 © 2008-2014 @ PPK
[ Time : 0.054s | 17 Queries | GZIP : Off ]

cron