img image001 image001 image001 image001 image001 image001 image001 image001 image001 image001 image001 image001 image001 image001 image001
Planets Sun Sun Sun
Статистика раздачи
Автор: PriZraK | Размер: 1.39 ГБ | Добавлен: 12 фев 2018
Раздают: 0    Качают: 3
Скачать торрент
Скачать торрент
Описание торрента

СообщениеДобавлено: 12 фев 2018 

Шиноби Нобунаги / Nobunaga no Shinobi / Ninja Girl & Samurai Master / 信長の忍び

Перевод: Любительский (двухголосый)
Субтитры: отсутствуют
Хардсаб: отсутствует
Формат: HDTVRip, MP4, H.264, AAC
Страна: Япония
Режиссер: Дайти Акитаро
Жанр: комедия
Продолжительность: ТВ (>24 эп. + спэшл), 4 мин.
Год выпуска: 2016
Озвучка: Гамлетка Цезаревна, 9й Неизвестный

Студия:

Описание: Чидори маленькая Шиноби, что живет в клане Ига, славящимся своими Шиноби. Однажды она решает поступить на службу к Оде Нобунаге, за то что он когда-то спас ее. Вместе со своим спутником Сукезо (который тайно в нее влюблен) они были приняты на службу к великому полководцу, и как бы ему не пришлось об этом пожалеть...



Видео: 1280x720р (16:9), 23.976fps, AVC (x264) , ~ 1776 kbps avg, 0.080 bit/pixel
Аудио: 48.0 kHz, AAC, (Front: L R), 2 ch ~ 255 Kbps avg

General
Complete name : D:\[AniDub]_Nobunaga_no_Shinobi_[720p]_[Hamletka_Cezarevna_9th_Unknown]\[AniDub]_Nobunaga_no_Shinobi_[00_OVA]_[720p_x264_Aac]_[Hamletka_Cezarevna_9th_Unknown].mp4
Format : MPEG-4
Format profile : Base Media
Codec ID : isom
File size : 75.4 MiB
Duration : 5mn 11s
Overall bit rate mode : Variable
Overall bit rate : 2 028 Kbps
Encoded date : UTC 2016-10-21 17:44:08
Tagged date : UTC 2016-10-21 17:44:08

Video
ID : 1
Format : AVC
Format/Info : Advanced Video Codec
Format profile :
Format settings, CABAC : Yes
Format settings, ReFrames : 6 frames
Codec ID : avc1
Codec ID/Info : Advanced Video Coding
Duration : 5mn 11s
Bit rate : 1 776 Kbps
Maximum bit rate : 8 101 Kbps
Width : 1 280 pixels
Height : 720 pixels
Display aspect ratio : 16:9
Frame rate mode : Constant
Frame rate : 23.976 fps
Color space : YUV
Chroma subsampling : 4:2:0
Bit depth : 8 bits
Scan type : Progressive
Bits/(Pixel*Frame) : 0.080
Stream size : 65.7 MiB (87%)
Writing library : x264 core 120 r2120 0c7dab9
Encoding settings : cabac=1 / ref=6 / deblock=1:1:1 / analyse=0x3:0x113 / me=umh / subme=8 / psy=1 / psy_rd=0.40:0.00 / mixed_ref=1 / me_range=16 / chroma_me=1 / trellis=1 / 8x8dct=1 / cqm=0 / deadzone=21,11 / fast_pskip=1 / chroma_qp_offset=-2 / threads=4 / sliced_threads=0 / nr=0 / decimate=1 / interlaced=0 / bluray_compat=0 / constrained_intra=0 / bframes=3 / b_pyramid=2 / b_adapt=2 / b_bias=0 / direct=3 / weightb=1 / open_gop=0 / weightp=2 / keyint=250 / keyint_min=23 / scenecut=40 / intra_refresh=0 / rc_lookahead=50 / rc=2pass / mbtree=1 / bitrate=1776 / ratetol=1.0 / qcomp=0.60 / qpmin=0 / qpmax=69 / qpstep=4 / cplxblur=20.0 / qblur=0.5 / vbv_maxrate=3552 / vbv_bufsize=8880 / nal_hrd=none / ip_ratio=1.40 / aq=1:0.60
Encoded date : UTC 2016-10-21 17:44:08
Tagged date : UTC 2016-10-21 17:44:27

Audio
ID : 2
Format : AAC
Format/Info : Advanced Audio Codec
Format profile : LC
Codec ID : 40
Duration : 5mn 11s
Bit rate mode : Variable
Bit rate : 255 Kbps
Maximum bit rate : 287 Kbps
Channel(s) : 2 channels
Channel positions : Front: L R
Sampling rate : 48.0 KHz
Compression mode : Lossy
Stream size : 9.50 MiB (13%)
Encoded date : UTC 2016-10-21 17:43:28
Tagged date : UTC 2016-10-21 17:44:27











   Похожие торренты   Торрент   Размер 
В этой теме нет новых непрочитанных сообщений. Ниндзя Нобунаги / Nobunaga no Shinobi [01x01-07] (2016) HDTVRip 720p | L2

0 | 0

536.98 МБ

В этой теме нет новых непрочитанных сообщений. Ниндзя Нобунаги / Nobunaga no Shinobi [TV] [00-05 из 12] (2016) HDTVRip 720p | DeadLine Studio

0 | 0

455.15 МБ

В этой теме нет новых непрочитанных сообщений. Ниндзя Нобунаги / Nobunaga no Shinobi [TV] [00-04 из 12] (2016) HDTVRip 720p | DeadLine Studio

0 | 0

375.97 МБ

В этой теме нет новых непрочитанных сообщений. Ниндзя Нобунаги / Nobunaga no Shinobi [TV] [01-02 из 12] (2016) HDTVRip 720p | DeadLine Studio

0 | 0

158.31 МБ

В этой теме нет новых непрочитанных сообщений. Ниндзя Нобунаги / Nobunaga no Shinobi [01x01-26] (2016) HDTVRip 720p | DeadLine Studio

15 | 1

1.97 ГБ

В этой теме нет новых непрочитанных сообщений. Ниндзя Нобунаги / Nobunaga no Shinobi [01x01-23] (2016) HDTVRip 720p | DeadLine Studio

0 | 0

1.72 ГБ

В этой теме нет новых непрочитанных сообщений. Ниндзя Нобунаги (ТВ-2) / Nobunaga no Shinobi: Ise Kanegasaki-hen [02x01-03 из 12] (2016) HDTVRip 720p | DeadLine Studio

5 | 0

202.92 МБ




Вы не можете начинать темы
Вы не можете отвечать на сообщения
Вы не можете редактировать свои сообщения
Вы не можете удалять свои сообщения
Вы не можете добавлять вложения

Перейти:  
Для Мосгорсуда, Роскомнадзора и рекламодателей: mosgorsud-torrent[собачка]yandex.ru
 Вход
ppkBB3cker v.2 © 2008-2014 @ PPK
[ Time : 0.034s | 18 Queries | GZIP : Off ]

cron