img image001 image001 image001 image001 image001 image001 image001 image001 image001 image001 image001 image001 image001 image001 image001
Planets Sun Sun Sun
Статистика раздачи
Автор: PriZraK | Размер: 4.98 ГБ | Добавлен: 12 фев 2018
Раздают: 8    Качают: 0
Скачать торрент
Скачать торрент
Описание торрента

СообщениеДобавлено: 12 фев 2018 

Призрачный мир мириады цветов / Бескрайний мир фантомов / Musaigen no Phantom World / 無彩限のファントム・ワールド

Перевод: Любительский (многоголосый)
Субтитры: отсутствуют
Формат: HDTVRip, MP4, H.264, AAC
Страна: Япония
Режиссер: Исихара Тацуя
Жанр: приключения, комедия, мистика
Продолжительность: ТВ (13 эп. + спэшлы), 25 мин.
Год выпуска: 2016
Озвучка: Ancord, Trina_D, Jade

Студия:

Описание: История разворачивается в недалёком будущем, в мире, рождённом из людских фантазий. Появляются создания, которые мы называем монстрами или призраками, в том мире же их кличут фантомами. Главный герой, Ичиджо Харухико, - первоклассник академии Хосэо. Его сэмпай Каваками Май сражается с фантомами, используя способность "Энергия пяти элементов". Изуми Рэйна использует способность "Пожиратель фантомов", Минасэ Който сражается в одиночестве. Школьная жизнь швыряет их с откосов на вершины и обратно, пока однажды некий инцидент не открывает им глаза на правду этого мира.



Видео: 1280х720р (16:9), 23.976fps, AVC (x264) , ~ (16:9), 23.976fps, AVC (x264) , ~ 1947 kbps avg, 0.088 bit/pixel kbps avg, 0.088 bit/pixel
Аудио: 48.0 kHz, AAC, (Front: L R), 2 ch ~ 192 Kbps avg

General
Complete name : D:\[AniDub]_Musaigen_no_Phantom_World_TV_[720p]_[Ancord_Jade_Trina_D]\[AniDub]_Musaigen_no_Phantom_World_[OVA]_[720p_x264_Aac]_[Ancord_Jade_Trina_D].mp4
Format : MPEG-4
Format profile : Base Media
Codec ID : isom
File size : 363 MiB
Duration : 23mn 40s
Overall bit rate mode : Variable
Overall bit rate : 2 143 Kbps
Encoded date : UTC 2016-11-04 16:20:45
Tagged date : UTC 2016-11-04 16:20:45

Video
ID : 1
Format : AVC
Format/Info : Advanced Video Codec
Format profile :
Format settings, CABAC : Yes
Format settings, ReFrames : 4 frames
Codec ID : avc1
Codec ID/Info : Advanced Video Coding
Duration : 23mn 39s
Bit rate : 1 947 Kbps
Maximum bit rate : 8 763 Kbps
Width : 1 280 pixels
Height : 720 pixels
Display aspect ratio : 16:9
Frame rate mode : Constant
Frame rate : 23.976 fps
Color space : YUV
Chroma subsampling : 4:2:0
Bit depth : 8 bits
Scan type : Progressive
Bits/(Pixel*Frame) : 0.088
Stream size : 330 MiB (91%)
Writing library : x264 core 148 r2721 72d53ab
Encoding settings : cabac=1 / ref=3 / deblock=1:0:0 / analyse=0x1:0x111 / me=hex / subme=7 / psy=1 / psy_rd=1.00:0.00 / mixed_ref=1 / me_range=16 / chroma_me=1 / trellis=1 / 8x8dct=0 / cqm=0 / deadzone=21,11 / fast_pskip=1 / chroma_qp_offset=-2 / threads=12 / lookahead_threads=2 / sliced_threads=0 / nr=0 / decimate=1 / interlaced=0 / bluray_compat=0 / constrained_intra=0 / bframes=3 / b_pyramid=2 / b_adapt=1 / b_bias=0 / direct=1 / weightb=1 / open_gop=0 / weightp=2 / keyint=240 / keyint_min=1 / scenecut=40 / intra_refresh=0 / rc_lookahead=40 / rc=crf / mbtree=1 / crf=20.0 / qcomp=0.60 / qpmin=0 / qpmax=69 / qpstep=4 / ip_ratio=1.40 / aq=1:1.50
Encoded date : UTC 2016-10-14 08:36:30
Tagged date : UTC 2016-11-04 16:20:45
Color primaries : BT.709
Transfer characteristics : BT.709
Matrix coefficients : BT.709
Color range : Limited

Audio
ID : 2
Format : AAC
Format/Info : Advanced Audio Codec
Format profile : LC
Codec ID : 40
Duration : 23mn 40s
Bit rate mode : Variable
Bit rate : 192 Kbps
Maximum bit rate : 196 Kbps
Channel(s) : 2 channels
Channel positions : Front: L R
Sampling rate : 48.0 KHz
Compression mode : Lossy
Stream size : 32.5 MiB (9%)
Language : English
Encoded date : UTC 2016-11-04 16:20:45
Tagged date : UTC 2016-11-04 16:20:45












   Похожие торренты   Торрент   Размер 
В этой теме нет новых непрочитанных сообщений. Мириады цветов фантомного мира / Musaigen no Phantom World (Исихара Тацуя) [TV] [1-13 из 13] [RAW] [RUS] [2016, приключения, комедия, мистика, HDRip] [720p]

14 | 3

2.8 ГБ

В этой теме нет новых непрочитанных сообщений. Мириады цветов фантомного мира / Myriad Colors Phantom World (Исихара Тацуя) [TV-1] [1-2 из 12] [OVERLORDS] [RAW] [RUS] [2016 г., приключения, HDTVRip] [720p]

5 | 2

708.38 МБ

В этой теме нет новых непрочитанных сообщений. Бескрайний мир фантомов / Musaigen no Phantom World [TV] [1 из 12] (2016) WEBRip 720p | AniFilm

30 | 8

699.49 МБ

В этой теме нет новых непрочитанных сообщений. Бескрайний мир фантомов / Musaigen no Phantom World [TV] [1 из 12] (2016) WEBRip 720p | AniFilm

22 | 4

347.63 МБ

В этой теме нет новых непрочитанных сообщений. Мириады цветов фантомного мира / Musaigen no Phantom World [01-13 из 13] (2016) HDTVRip 720p | SEKAI-PROJECT

32 | 7

6.33 ГБ

В этой теме нет новых непрочитанных сообщений. Мириады цветов фантомного мира / Musaigen no Phantom World [01-10 из 12] (2016) HDTVRip 720p | SEKAI-PROJECT

2 | 1

5.02 ГБ

В этой теме нет новых непрочитанных сообщений. Мириады Цветов Фантомного Мира / Musaigen no Phantom World [01 из 12] (2016) HDTVRip 720p | SEKAI-PROJECT

19 | 3

565.97 МБ




Вы не можете начинать темы
Вы не можете отвечать на сообщения
Вы не можете редактировать свои сообщения
Вы не можете удалять свои сообщения
Вы не можете добавлять вложения

Перейти:  
Для Мосгорсуда, Роскомнадзора и рекламодателей: mosgorsud-torrent[собачка]yandex.ru
 Вход
ppkBB3cker v.2 © 2008-2014 @ PPK
[ Time : 0.308s | 20 Queries | GZIP : Off ]

cron