img image001 image001 image001 image001 image001 image001 image001 image001 image001 image001 image001 image001 image001 image001 image001
Planets Sun Sun Sun
Статистика раздачи
Автор: PriZraK | Размер: 579.84 МБ | Добавлен: 12 фев 2018
Раздают: 0    Качают: 2
Скачать торрент
Скачать торрент
Описание торрента

СообщениеДобавлено: 12 фев 2018 

Синий демон / Ao Oni: The Animation / あおおに ~じ・あにめぇしょん~

Перевод: Любительский (двухголосый)
Субтитры: отсутствуют
Формат: HDTVRip, MP4, H.264, AAC
Страна: Япония
Режиссер: Хамамура Тосиро
Жанр: комедия
Продолжительность: ТВ (>13 эп.), 3 мин.
Год выпуска: 2016
Озвучка: Гамлетка Цезаревна, 9й Неизвестный

Студия:

Описание: Экранизация одноименной компьютерной игры. Ходят слухи, что в одном старом особняке на окраине города водится монстр... Хироши, вместе со своими одноклассниками, решает отправиться в особняк, чтобы либо разоблачить эту легенду, либо…



Видео: 1280x720р (16:9), 23.976fps, AVC (x264) , ~ 1776 kbps avg, 0.080 bit/pixel
Аудио: 48.0 kHz, AAC, (Front: L R), 2 ch ~ 255 Kbps avg

General
Complete name : E:\DOWNLOADS\[AniDub]_Ao _Oni_The_ Animation_[720p]_[Hamletka_Cezarevna_9th_Unknown]\[AniDub]_Ao _Oni_The_ Animation_[01]_[720p_x264_Aac]_[Hamletka_Cezarevna_9th_Unknown.mp4
Format : MPEG-4
Format profile : Base Media
Codec ID : isom
File size : 44.5 MiB
Duration : 3mn 4s
Overall bit rate mode : Variable
Overall bit rate : 2 026 Kbps
Encoded date : UTC 2016-10-01 23:43:34
Tagged date : UTC 2016-10-01 23:43:34

Video
ID : 1
Format : AVC
Format/Info : Advanced Video Codec
Format profile :
Format settings, CABAC : Yes
Format settings, ReFrames : 6 frames
Codec ID : avc1
Codec ID/Info : Advanced Video Coding
Duration : 3mn 3s
Bit rate : 1 776 Kbps
Maximum bit rate : 5 174 Kbps
Width : 1 280 pixels
Height : 720 pixels
Display aspect ratio : 16:9
Frame rate mode : Constant
Frame rate : 23.976 fps
Color space : YUV
Chroma subsampling : 4:2:0
Bit depth : 8 bits
Scan type : Progressive
Bits/(Pixel*Frame) : 0.080
Stream size : 38.8 MiB (87%)
Writing library : x264 core 120 r2120 0c7dab9
Encoding settings : cabac=1 / ref=6 / deblock=1:1:1 / analyse=0x3:0x113 / me=umh / subme=8 / psy=1 / psy_rd=0.40:0.00 / mixed_ref=1 / me_range=16 / chroma_me=1 / trellis=1 / 8x8dct=1 / cqm=0 / deadzone=21,11 / fast_pskip=1 / chroma_qp_offset=-2 / threads=4 / sliced_threads=0 / nr=0 / decimate=1 / interlaced=0 / bluray_compat=0 / constrained_intra=0 / bframes=3 / b_pyramid=2 / b_adapt=2 / b_bias=0 / direct=3 / weightb=1 / open_gop=0 / weightp=2 / keyint=250 / keyint_min=23 / scenecut=40 / intra_refresh=0 / rc_lookahead=50 / rc=2pass / mbtree=1 / bitrate=1776 / ratetol=1.0 / qcomp=0.60 / qpmin=0 / qpmax=69 / qpstep=4 / cplxblur=20.0 / qblur=0.5 / vbv_maxrate=3552 / vbv_bufsize=8880 / nal_hrd=none / ip_ratio=1.40 / aq=1:0.60
Encoded date : UTC 2016-10-01 23:43:34
Tagged date : UTC 2016-10-01 23:43:46

Audio
ID : 2
Format : AAC
Format/Info : Advanced Audio Codec
Format profile : LC
Codec ID : 40
Duration : 3mn 4s
Bit rate mode : Variable
Bit rate : 255 Kbps
Maximum bit rate : 277 Kbps
Channel(s) : 2 channels
Channel positions : Front: L R
Sampling rate : 48.0 KHz
Compression mode : Lossy
Stream size : 5.60 MiB (13%)
Encoded date : UTC 2016-10-01 23:43:21
Tagged date : UTC 2016-10-01 23:43:46












   Похожие торренты   Торрент   Размер 
В этой теме нет новых непрочитанных сообщений. Синий демон / Blue Demon (2014) HDRip

129 | 17

1.37 ГБ

В этой теме нет новых непрочитанных сообщений. Синий демон / Ao oni / Blue Demon (2014) BDRip-AVC | L

131 | 26

1.49 ГБ

В этой теме нет новых непрочитанных сообщений. Лунная песнь / Tsukiuta. The Animation [S01] (2016) HDTVRip 720p | L1

1 | 0

6.91 ГБ

В этой теме нет новых непрочитанных сообщений. Звездная фантазия онлайн 2 / Phantasy Star Online 2 The Animation [01-04 из 12] (2016) HDTVRip | L2

34 | 10

2.33 ГБ

В этой теме нет новых непрочитанных сообщений. Звездная фантазия онлайн 2 / Phantasy Star Online 2 The Animation [01-04 из 12] (2016) HDTVRip | L2

103 | 15

1.86 ГБ

В этой теме нет новых непрочитанных сообщений. Небесные стрелки / Gunslinger Stratos: The Animation [01-04 из 12] (2015) HDTVRip 720p

24 | 8

1.49 ГБ

В этой теме нет новых непрочитанных сообщений. Небесные стрелки / Gunslinger Stratos: The Animation [01-02 из 12] (2015) HDTVRip 720p

23 | 8

699.24 МБ




Вы не можете начинать темы
Вы не можете отвечать на сообщения
Вы не можете редактировать свои сообщения
Вы не можете удалять свои сообщения
Вы не можете добавлять вложения

Перейти:  
Для Мосгорсуда, Роскомнадзора и рекламодателей: mosgorsud-torrent[собачка]yandex.ru
 Вход
ppkBB3cker v.2 © 2008-2014 @ PPK
[ Time : 0.081s | 18 Queries | GZIP : Off ]

cron